[Цитировать]
kamikkadze

Crayon Pop - Bar Bar Bar (2013) HDTVRip 1080p | 60 fps

Информация о Клипе:
Исполнители: Crayon Pop
Название: Bar Bar Bar
Год выпуска: 2013 г.
Жанр: Pop
Продолжительность: 00:03:00

Файл:
Формат видео: MKV
Качество видео: HDTVRip 1080p | 60 fps
Видео кодек: H.264
Аудио кодек: AC3
Видео: 1920x1080 | 59.940 fps | 23,5 Мбит/сек
Аудио: AC3 | 2 channels | 48 kHz | 384 Кбит/сек

Автор Рипа:

MediaInfo

Видео
Идентификатор : 1
Формат : AVC
Формат/Информация : Advanced Video Codec
Профиль формата : High@L4.1
Параметр CABAC формата : Да
Параметр ReFrames формата : 4 кадра
Режим смешивания : Header stripping
Идентификатор кодека : V_MPEG4/ISO/AVC
Продолжительность : 3 м. 0 с.
Битрейт : 23,5 Мбит/сек
Ширина : 1920 пикселей
Высота : 1080 пикселей
Соотношение сторон : 16:9
Режим частоты кадров : Постоянный
Частота кадров : 59,940 (59940/1000) кадров/сек
Цветовое пространство : YUV
Субдискретизация насыщенности : 4:2:0
Битовая глубина : 8 бит
Тип развёртки : Прогрессивная
Бит/(Пиксели*Кадры) : 0.189
Размер потока : 492 Мбайт (96%)
Заголовок : Crayon Pop - Bar Bar Bar « R.G 60-FPS Rip By Kamikkadze »
Библиотека кодирования : x264 core 146 r2538 121396c
Настройки программы : cabac=1 / ref=3 / deblock=1:-1:-1 / analyse=0x3:0x133 / me=umh / subme=10 / psy=1 / psy_rd=1.00:0.15 / mixed_ref=1 / me_range=24 / chroma_me=1 / trellis=2 / 8x8dct=1 / cqm=0 / deadzone=21,11 / fast_pskip=1 / chroma_qp_offset=-3 / threads=6 / lookahead_threads=1 / sliced_threads=0 / nr=0 / decimate=1 / interlaced=0 / bluray_compat=0 / constrained_intra=0 / bframes=3 / b_pyramid=2 / b_adapt=2 / b_bias=0 / direct=1 / weightb=1 / open_gop=0 / weightp=2 / keyint=250 / keyint_min=25 / scenecut=40 / intra_refresh=0 / rc_lookahead=60 / rc=abr / mbtree=1 / bitrate=23451 / ratetol=1.0 / qcomp=0.60 / qpmin=0 / qpmax=69 / qpstep=4 / ip_ratio=1.40 / aq=1:1.00
Default : Да
Forced : Нет
Аудио
Идентификатор : 2
Формат : AC-3
Формат/Информация : Audio Coding 3
Расширение режима : CM (complete main)
Параметр Endianness формата : Big
Режим смешивания : Header stripping
Идентификатор кодека : A_AC3
Продолжительность : 3 м. 0 с.
Вид битрейта : Постоянный
Битрейт : 384 Кбит/сек
Каналы : 2 канала
Расположение каналов : Front: L R
Частота : 48,0 КГц
Частота кадров : 31,250 кадров/сек (1536 spf)
Метод сжатия : С потерями
Размер потока : 8,26 Мбайт (2%)
Default : Да
Forced : Нет
Просьба к переливающим на другие сайты, в оформлении указывайте пожалуйста авторство рипа - Kamikkadze

Релиз подготовлен 60 - fps

 
Показать сообщения:    

Текущее время: 08-Дек 09:01

Часовой пояс: UTC + 3


Вы не можете начинать темы
Вы не можете отвечать на сообщения
Вы не можете редактировать свои сообщения
Вы не можете удалять свои сообщения
Вы не можете голосовать в опросах
Вы не можете прикреплять файлы к сообщениям
Вы не можете скачивать файлы