VIP

Интерстеллар / Interstellar (2014) BDRip 1080p | IMAX Edition | 60fps Джокер / Joker (2019) BDRip 1080p | 60 fps Проект Power / Project Power (2020) WEBRip 1080p | 60 fps Звёздные войны: Скайуокер. Восход / Star Wars: Episode IX - The Rise of Skywalker (2019) BDRip 1080p | 60 fps Бессмертная гвардия / The Old Guard (2020) WEBRip 1080p | 60 fps Доктор Стрэндж / Doctor Strange (2016) BDRip 1080p | 60 fps Аватар / Avatar (2009) BDRip 1080p | 60 fps Грань будущего / Edge of Tomorrow (2014) BDRip 1080p | 60 fps
  1. Longevity:
    6 years 1 month
    Posts:
    2418
    Gender:
    Male

    Русское название: Чужой
    Оригинальное название: Alien
    Год выхода: 1979
    Жанр: ужасы фантастика
    Режиссер: Ридли Скотт
    Выпущено: США, Великобритания
    Продолжительность: 01:56:37
    Перевод: Дублированный, Профессиональный (многоголосый, закадровый), Авторский одноголосый.
    В ролях: Сигурни Уивер, Том Скеррит, Вероника Картрайт, Гарри Дин Стэнтон, Джон Хёрт, Иэн Холм, Яфет Котто, Боладжи Бадеджо, Хелен Хортон, Эдди Пауэлл-Сюжет фильма
    В далеком будущем возвращающийся на Землю грузовой космический корабль перехватывает исходящий с неизвестной планеты неопознанный сигнал. Экипаж принимает решение совершить посадку и разобраться, в чем дело. Оказавшись на планете, астронавты повсюду обнаруживают неопознанные предметы, по виду напоминающие гигантские коконы…-Файл
    Качество: BDRip-AVC (исходник 1080p)
    Видео: 1024x436, 3168 Кбит/сек, 59.940 кадр/сек, AVC, x264, High@L4.1, 2.35:1, 0.119 Бит/[Пиксели*Кадры]
    Аудио 1: AC-3, 448 Кбит/сек, 6 канала(ов), 48,0 КГц - Дублированный, Blu-ray CEE / Русский
    Аудио 2: AC-3, 96 Кбит/сек, 1 канала(ов), 48,0 КГц - Одноголосый закадровый, В.Герасимов, киностудия Фильмэкспорт [Госкино СССР] / Русский
    Аудио 3: AC-3, 448 Кбит/сек, 6 канала(ов), 48,0 КГц - Одноголосый закадровый, Д.Пучков / Русский
    Аудио 4: AC-3, 448 Кбит/сек, 6 канала(ов), 48,0 КГц - Многоголосый закадровый, Двадцатый Век Фокс / Русский
    Аудио 5: AC-3, 192 Кбит/сек, 2 канала(ов), 48,0 КГц - Многоголосый закадровый, Премьер Видео Фильм / Русский
    Аудио 6: AC-3, 448 Кбит/сек, 6 канала(ов), 48,0 КГц - Одноголосый закадровый, В.Горчаков, Поздний / Русский
    Аудио 7: AC-3, 192 Кбит/сек, 2 канала(ов), 48,0 КГц - Одноголосый закадровый, В.Горчаков, Ранний / Русский
    Аудио 8: AC-3, 192 Кбит/сек, 2 канала(ов), 48,0 КГц - Одноголосый закадровый, Ю.Живов / Русский
    Аудио 9: AC-3, 192 Кбит/сек, 2 канала(ов), 48,0 КГц - Одноголосый закадровый, Л.Володарский / Русский
    Аудио 10: AC-3, 192 Кбит/сек, 2 канала(ов), 48,0 КГц - Одноголосый закадровый, В.Махонько / Русский
    Аудио 11: AC-3, 448 Кбит/сек, 6 канала(ов), 48,0 КГц - Оригинал / Английский
    Субтитры: Русские | Полные, Английские | Полные
    Чаптеры (Главы): Есть, подписанные оригинальные- -

    Скриншоты

    MediaInfo

    Format : Matroska
    Format version : Version 2
    File size : 5.37 GiB
    Duration : 1h 56mn
    Overall bit rate : 6 596 Kbps
    Movie name : Чужой.(1979).BDRip-AVC.[envy].[60fps]
    Encoded date : UTC 2015-11-09 18:23:07
    Writing application : mkvmerge v5.8.0 ('No Sleep / Pillow') built on Sep 2 2012 15:37:04
    Writing library : libebml v1.2.3 + libmatroska v1.3.0
    Video
    ID : 1
    Format : AVC
    Format/Info : Advanced Video Codec
    Format profile : High@L4.1
    Format settings, CABAC : Yes
    Format settings, ReFrames : 9 frames
    Codec ID : V_MPEG4/ISO/AVC
    Duration : 1h 56mn
    Bit rate : 3 168 Kbps
    Width : 1 024 pixels
    Height : 436 pixels
    Display aspect ratio : 2.35:1
    Frame rate mode : Constant
    Frame rate : 59.880 fps
    Original frame rate : 59.940 fps
    Color space : YUV
    Chroma subsampling : 4:2:0
    Bit depth : 8 bits
    Scan type : Progressive
    Bits/(Pixel*Frame) : 0.119
    Stream size : 2.58 GiB (48%)
    Writing library : x264 core 146 r2538 121396c
    Encoding settings : cabac=1 / ref=9 / deblock=1:0:0 / analyse=0x3:0x113 / me=umh / subme=10 / psy=1 / psy_rd=1.00:0.00 / mixed_ref=1 / me_range=24 / chroma_me=1 / trellis=2 / 8x8dct=1 / cqm=0 / deadzone=21,11 / fast_pskip=0 / chroma_qp_offset=-2 / threads=12 / lookahead_threads=2 / sliced_threads=0 / nr=0 / decimate=1 / interlaced=0 / bluray_compat=0 / constrained_intra=0 / bframes=8 / b_pyramid=2 / b_adapt=2 / b_bias=0 / direct=3 / weightb=1 / open_gop=0 / weightp=2 / keyint=250 / keyint_min=25 / scenecut=40 / intra_refresh=0 / rc_lookahead=40 / rc=crf / mbtree=0 / crf=18.0 / qcomp=0.60 / qpmin=0 / qpmax=69 / qpstep=4 / vbv_maxrate=14000 / vbv_bufsize=14000 / crf_max=0.0 / nal_hrd=none / filler=0 / ip_ratio=1.40 / pb_ratio=1.30 / aq=3:1.00
    Language : English
    Default : Yes
    Forced : No
    Audio #1
    ID : 2
    Format : AC-3
    Format/Info : Audio Coding 3
    Mode extension : CM (complete main)
    Format settings, Endianness : Big
    Codec ID : A_AC3
    Duration : 1h 56mn
    Bit rate mode : Constant
    Bit rate : 448 Kbps
    Channel(s) : 6 channels
    Channel positions : Front: L C R, Side: L R, LFE
    Sampling rate : 48.0 KHz
    Compression mode : Lossy
    Stream size : 374 MiB (7%)
    Title : Dub - Blu-ray CEE
    Language : Russian
    Default : Yes
    Forced : No
    Audio #2
    ID : 3
    Format : AC-3
    Format/Info : Audio Coding 3
    Mode extension : CM (complete main)
    Format settings, Endianness : Big
    Codec ID : A_AC3
    Duration : 1h 56mn
    Bit rate mode : Constant
    Bit rate : 96.0 Kbps
    Channel(s) : 1 channel
    Channel positions : Front: C
    Sampling rate : 48.0 KHz
    Compression mode : Lossy
    Stream size : 80.1 MiB (1%)
    Title : AVO - V.Gerasimov
    Language : Russian
    Default : No
    Forced : No
    Audio #3
    ID : 4
    Format : AC-3
    Format/Info : Audio Coding 3
    Mode extension : CM (complete main)
    Format settings, Endianness : Big
    Codec ID : A_AC3
    Duration : 1h 56mn
    Bit rate mode : Constant
    Bit rate : 448 Kbps
    Channel(s) : 6 channels
    Channel positions : Front: L C R, Side: L R, LFE
    Sampling rate : 48.0 KHz
    Compression mode : Lossy
    Stream size : 374 MiB (7%)
    Title : AVO - D.Puchkov
    Language : Russian
    Default : No
    Forced : No
    Audio #4
    ID : 5
    Format : AC-3
    Format/Info : Audio Coding 3
    Mode extension : CM (complete main)
    Format settings, Endianness : Big
    Codec ID : A_AC3
    Duration : 1h 56mn
    Bit rate mode : Constant
    Bit rate : 448 Kbps
    Channel(s) : 6 channels
    Channel positions : Front: L C R, Side: L R, LFE
    Sampling rate : 48.0 KHz
    Compression mode : Lossy
    Stream size : 374 MiB (7%)
    Title : MVO - Dvadcatyj Vek Foks
    Language : Russian
    Default : No
    Forced : No
    Audio #5
    ID : 6
    Format : AC-3
    Format/Info : Audio Coding 3
    Mode extension : CM (complete main)
    Format settings, Endianness : Big
    Codec ID : A_AC3
    Duration : 1h 56mn
    Bit rate mode : Constant
    Bit rate : 192 Kbps
    Channel(s) : 2 channels
    Channel positions : Front: L R
    Sampling rate : 48.0 KHz
    Compression mode : Lossy
    Stream size : 160 MiB (3%)
    Title : MVO - Prem'er Video Fil'm
    Language : Russian
    Default : No
    Forced : No
    Audio #6
    ID : 7
    Format : AC-3
    Format/Info : Audio Coding 3
    Mode extension : CM (complete main)
    Format settings, Endianness : Big
    Codec ID : A_AC3
    Duration : 1h 56mn
    Bit rate mode : Constant
    Bit rate : 448 Kbps
    Channel(s) : 6 channels
    Channel positions : Front: L C R, Side: L R, LFE
    Sampling rate : 48.0 KHz
    Compression mode : Lossy
    Stream size : 374 MiB (7%)
    Title : AVO - V.Gorchakov Pozdnij
    Language : Russian
    Default : No
    Forced : No
    Audio #7
    ID : 8
    Format : AC-3
    Format/Info : Audio Coding 3
    Mode extension : CM (complete main)
    Format settings, Endianness : Big
    Codec ID : A_AC3
    Duration : 1h 56mn
    Bit rate mode : Constant
    Bit rate : 192 Kbps
    Channel(s) : 2 channels
    Channel positions : Front: L R
    Sampling rate : 48.0 KHz
    Compression mode : Lossy
    Stream size : 160 MiB (3%)
    Title : AVO - V.Gorchakov Pannij
    Language : Russian
    Default : No
    Forced : No
    Audio #8
    ID : 9
    Format : AC-3
    Format/Info : Audio Coding 3
    Mode extension : CM (complete main)
    Format settings, Endianness : Big
    Codec ID : A_AC3
    Duration : 1h 56mn
    Bit rate mode : Constant
    Bit rate : 192 Kbps
    Channel(s) : 2 channels
    Channel positions : Front: L R
    Sampling rate : 48.0 KHz
    Compression mode : Lossy
    Stream size : 160 MiB (3%)
    Title : AVO - Ju.Zhivov
    Language : Russian
    Default : No
    Forced : No
    Audio #9
    ID : 10
    Format : AC-3
    Format/Info : Audio Coding 3
    Mode extension : CM (complete main)
    Format settings, Endianness : Big
    Codec ID : A_AC3
    Duration : 1h 56mn
    Bit rate mode : Constant
    Bit rate : 192 Kbps
    Channel(s) : 2 channels
    Channel positions : Front: L R
    Sampling rate : 48.0 KHz
    Compression mode : Lossy
    Stream size : 160 MiB (3%)
    Title : AVO - L.Volodarskij
    Language : Russian
    Default : No
    Forced : No
    Audio #10
    ID : 11
    Format : AC-3
    Format/Info : Audio Coding 3
    Mode extension : CM (complete main)
    Format settings, Endianness : Big
    Codec ID : A_AC3
    Duration : 1h 56mn
    Bit rate mode : Constant
    Bit rate : 192 Kbps
    Channel(s) : 2 channels
    Channel positions : Front: L R
    Sampling rate : 48.0 KHz
    Compression mode : Lossy
    Stream size : 160 MiB (3%)
    Title : AVO - V.Mahon'ko
    Language : Russian
    Default : No
    Forced : No
    Audio #11
    ID : 12
    Format : AC-3
    Format/Info : Audio Coding 3
    Mode extension : CM (complete main)
    Format settings, Endianness : Big
    Codec ID : A_AC3
    Duration : 1h 56mn
    Bit rate mode : Constant
    Bit rate : 448 Kbps
    Channel(s) : 6 channels
    Channel positions : Front: L C R, Side: L R, LFE
    Sampling rate : 48.0 KHz
    Compression mode : Lossy
    Stream size : 374 MiB (7%)
    Title : Eng
    Language : English
    Default : No
    Forced : No
    Text #1
    ID : 13
    Format : UTF-8
    Codec ID : S_TEXT/UTF8
    Codec ID/Info : UTF-8 Plain Text
    Title : Rus full
    Language : Russian
    Default : No
    Forced : No
    Text #2
    ID : 14
    Format : UTF-8
    Codec ID : S_TEXT/UTF8
    Codec ID/Info : UTF-8 Plain Text
    Title : Eng Full
    Language : English
    Default : No
    Forced : No
    Menu
    00:00:00.000 : en:Main Titles
    00:02:01.121 : en:Awakenings
    00:09:17.223 : en:Nostromo Re-Routed
    00:12:47.141 : en:Answering the Call
    00:18:36.949 : en:Walking Distance
    00:21:53.687 : en:Proceeding Blindly
    00:23:53.974 : en:Dark Horizons
    00:26:50.608 : en:A Word of Warning
    00:31:06.781 : en:Kane's Descent
    00:34:47.502 : en:Surface Tension
    00:39:14.268 : en:Acid
    00:42:06.899 : en:Standard Procedure
    00:46:25.282 : en:The Missing Guest
    00:50:55.468 : en:Long Journey Ahead
    00:53:35.837 : en:The Last Supper
    00:58:26.127 : en:On the Hunt
    01:03:32.475 : en:"Here Jonesy"
    01:08:07.499 : en:"What Are My Chances?"
    01:11:01.173 : en:Into the Air Ducts
    01:14:09.611 : en:The Third Junction
    01:15:51.129 : en:"No Blood, No Dallas"
    01:18:37.212 : en:Special Order
    01:24:10.128 : en:"Crew Expendable"
    01:28:24.006 : en:Escape Plan
    01:30:54.323 : en:"Kitty, Kitty, Kitty"
    01:32:53.484 : en:Cornered
    01:34:44.511 : en:Auto-Destruct Initiated
    01:36:28.615 : en:Override Failed
    01:39:27.544 : en:Narcissus Escape
    01:44:15.957 : en:Survivors
    01:47:05.668 : en:"You Are My Lucky Star"
    01:53:53.075 : en:End Credits


    Last edited by Kryl on 2015-11-21 21:57; edited 1 time in total
  2. Longevity:
    5 years 1 month
    Posts:
    26
    Gender:
    Male
    эх всю бы эпопею чужих с хищниками :ah:
    10-Nov-2015 22:18 (after 2 hours 5 minutes)
  3. Longevity:
    5 years 4 months
    Posts:
    6
    Gender:
    Unknown
    Дилетантское описание. "астронавты повсюду обнаруживают". Не повсюду на планете, а в одном конкретном месте инопланетного корабля. Заливший сам то смотрел Чужого? )))
    11-Nov-2015 07:31 (after 9 hours)
  4. Longevity:
    6 years 1 month
    Posts:
    2418
    Gender:
    Male
    4492Дилетантское описание. "астронавты повсюду обнаруживают". Не повсюду на планете, а в одном конкретном месте инопланетного корабля. Заливший сам то смотрел Чужого? )))
    Не надо умничать ... Описание с кинопоиска .
    11-Nov-2015 07:45 (after 13 minutes)
  5. Longevity:
    5 years 6 months
    Posts:
    97
    Gender:
    Unknown
    KRYL, Ох, ох, ох.
    Что это вдруг))))
    11-Nov-2015 16:29 (after 8 hours)
  6. Longevity:
    6 years 1 month
    Posts:
    2418
    Gender:
    Male
    4495KRYL, Ох, ох, ох.
    Что это вдруг))))
    Да , так взгруснулось ..
    Вот что это ты вдруг на этот говноформат перешел ))) AVC ..
    11-Nov-2015 17:29 (after 1 hour)
  7. Longevity:
    6 years 1 month
    Posts:
    310
    Gender:
    Male
    4496
    4495KRYL, Ох, ох, ох.
    Что это вдруг))))
    Да , так взгруснулось ..
    Вот что это ты вдруг на этот говноформат перешел ))) AVC ..
    а он сча скажет - заказали :ag:
    11-Nov-2015 21:57 (after 4 hours)
  8. Longevity:
    6 years 1 month
    Posts:
    2418
    Gender:
    Male
    Ну да :ag:
    11-Nov-2015 22:08 (after 11 minutes)


You cannot post new topics in this forum
You cannot reply to topics in this forum
You cannot edit your posts in this forum
You cannot delete your posts in this forum
You cannot vote in polls in this forum
You cannot attach files in this forum
You cannot download files in this forum