[Цитировать]
Kryl

«Главное - спастись...»- Информация
Название: Чужой 4: Воскрешение
Оригинальное название: Alien: Resurrection
Год выхода: 1997
Жанр: ужасы, фантастика, боевик, триллер
Режиссер: Жан-Пьер Жёне
Сценарий: Джосс Уидон, Дэн О’Бэннон, Рональд Шусетт
Продюсер: Билл Бадалато, Гордон Кэрролл, Дэвид Гайлер
В ролях: Сигурни Уивер, Вайнона Райдер, Доминик Пинон, Рон Перлман, Гари Дурдан, Майкл Уинкотт, Ким Флауэрс, Дэн Хедайя, Дж. Э. Фримен, Брэд Дуриф
--Сюжет:
Спустя двести лет после событий, произошедших на планете-тюрьме, группа ученых, опекаемых военным командованием, клонирует Эллен Рипли, чтобы с ее помощью заполучить детеныша инопланетного монстра. Вскоре он уже сам начинает плодиться, производя на свет новую породу — помесь кровожадного пришельца и… человека.- Страна: США
Продолжительность: 01:48:48

Файл
Кодек: MPEG4/ISO/AVC H.264
Формат: MKV
Качество: BDRip 720p | 60 fps
Видео: 1280 x 546 (2.344) | 59.940 fps | 10.0 Мбит/сек
Аудио 1: AC3 | 5.1 | 48 kHz | 448 kbps | 16 bit | Дубляж CEE |
Аудио 2: AC3 | 2.0 | 48 kHz | 192 kbps | 16 bit | Профессиональный (многоголосый, закадровый) Премьер Видео Фильм |
Аудио 3: AC3 | 5.1 | 48 kHz | 448 kbps | 16 bit | Профессиональный (многоголосый, закадровый) XX th Century Fox |
Аудио 4: AC3 | 5.1 | 48 kHz | 448 kbps | 16 bit | Авторский одноголосый В.Горчаков |
Аудио 5: AC3 | 5.1 | 48 kHz | 448 kbps | 16 bit | Авторский одноголосый А.Гаврилов |
Аудио 6: AC3 | 5.1 | 48 kHz | 448 kbps | 16 bit | Авторский одноголосый Д.Пучкова (Гоблин) |
Аудио 7: AC3 | 5.1 | 48 kHz | 448 kbps | 16 bit | ENG |
Субтитры: Русские, английские

MedifInfo

Видео
Идентификатор : 1
Формат : AVC
Формат/Информация : Advanced Video Codec
Профиль формата : High@L4.1
Параметр CABAC формата : Да
Параметр ReFrames формата : 3 кадра
Идентификатор кодека : V_MPEG4/ISO/AVC
Продолжительность : 1 ч. 48 м.
Вид битрейта : Переменный
Битрейт : 9720 Кбит/сек
Максимальный битрейт : 10000 Кбит/сек
Ширина : 1280 пикселей
Высота : 546 пикселей
Соотношение сторон : 2,35:1
Режим частоты кадров : Постоянный
Частота кадров : 59,880 кадров/сек
Частота кадров в оригинале : 59,940 кадров/сек
Стандарт вещания : PAL
Цветовое пространство : YUV
Субдискретизация насыщенности : 4:2:0
Битовая глубина : 8 бит
Тип развёртки : Прогрессивная
Бит/(Пиксели*Кадры) : 0.232
Размер потока : 7,39 Гбайт (76%)
Заголовок : www.60-fps.org
Язык : English
Default : Да
Forced : Нет
Основные цвета : BT.601 NTSC
Характеристики трансфера : BT.601
Коэффициенты матрицы : BT.601
colour_range : Limited
Аудио #1
Идентификатор : 2
Формат : AC-3
Формат/Информация : Audio Coding 3
Расширение режима : CM (complete main)
Параметр Endianness формата : Big
Идентификатор кодека : A_AC3
Продолжительность : 1 ч. 48 м.
Вид битрейта : Постоянный
Битрейт : 448 Кбит/сек
Каналы : 6 каналов
Расположение каналов : Front: L C R, Side: L R, LFE
Частота : 48,0 КГц
Битовая глубина : 16 бит
Метод сжатия : С потерями
Размер потока : 349 Мбайт (3%)
Заголовок : Дубляж CEE
Default : Да
Forced : Нет
Аудио #2
Идентификатор : 3
Формат : AC-3
Формат/Информация : Audio Coding 3
Расширение режима : CM (complete main)
Параметр Endianness формата : Big
Идентификатор кодека : A_AC3
Продолжительность : 1 ч. 48 м.
Вид битрейта : Постоянный
Битрейт : 192 Кбит/сек
Каналы : 2 канала
Расположение каналов : Front: L R
Частота : 48,0 КГц
Битовая глубина : 16 бит
Метод сжатия : С потерями
Размер потока : 149 Мбайт (1%)
Заголовок : Премьер Видео Фильм
Default : Нет
Forced : Нет
Аудио #3
Идентификатор : 4
Формат : AC-3
Формат/Информация : Audio Coding 3
Расширение режима : CM (complete main)
Параметр Endianness формата : Big
Идентификатор кодека : A_AC3
Продолжительность : 1 ч. 48 м.
Вид битрейта : Постоянный
Битрейт : 448 Кбит/сек
Каналы : 6 каналов
Расположение каналов : Front: L C R, Side: L R, LFE
Частота : 48,0 КГц
Битовая глубина : 16 бит
Метод сжатия : С потерями
Размер потока : 349 Мбайт (3%)
Заголовок : XX th Century Fox
Default : Нет
Forced : Нет
Аудио #4
Идентификатор : 5
Формат : AC-3
Формат/Информация : Audio Coding 3
Расширение режима : CM (complete main)
Параметр Endianness формата : Big
Идентификатор кодека : A_AC3
Продолжительность : 1 ч. 48 м.
Вид битрейта : Постоянный
Битрейт : 448 Кбит/сек
Каналы : 6 каналов
Расположение каналов : Front: L C R, Side: L R, LFE
Частота : 48,0 КГц
Битовая глубина : 16 бит
Метод сжатия : С потерями
Размер потока : 349 Мбайт (3%)
Заголовок : В.Горчаков
Default : Нет
Forced : Нет
Аудио #5
Идентификатор : 6
Формат : AC-3
Формат/Информация : Audio Coding 3
Расширение режима : CM (complete main)
Параметр Endianness формата : Big
Идентификатор кодека : A_AC3
Продолжительность : 1 ч. 48 м.
Вид битрейта : Постоянный
Битрейт : 448 Кбит/сек
Каналы : 6 каналов
Расположение каналов : Front: L C R, Side: L R, LFE
Частота : 48,0 КГц
Битовая глубина : 16 бит
Метод сжатия : С потерями
Размер потока : 349 Мбайт (3%)
Заголовок : А.Гаврилов
Default : Нет
Forced : Нет
Аудио #6
Идентификатор : 7
Формат : AC-3
Формат/Информация : Audio Coding 3
Расширение режима : CM (complete main)
Параметр Endianness формата : Big
Идентификатор кодека : A_AC3
Продолжительность : 1 ч. 48 м.
Вид битрейта : Постоянный
Битрейт : 448 Кбит/сек
Каналы : 6 каналов
Расположение каналов : Front: L C R, Side: L R, LFE
Частота : 48,0 КГц
Битовая глубина : 16 бит
Метод сжатия : С потерями
Размер потока : 349 Мбайт (3%)
Заголовок : Д.Пучкова (Гоблин)
Default : Нет
Forced : Нет
Аудио #7
Идентификатор : 8
Формат : AC-3
Формат/Информация : Audio Coding 3
Расширение режима : CM (complete main)
Параметр Endianness формата : Big
Идентификатор кодека : A_AC3
Продолжительность : 1 ч. 48 м.
Вид битрейта : Постоянный
Битрейт : 448 Кбит/сек
Каналы : 6 каналов
Расположение каналов : Front: L C R, Side: L R, LFE
Частота : 48,0 КГц
Битовая глубина : 16 бит
Метод сжатия : С потерями
Размер потока : 349 Мбайт (3%)
Заголовок : ENG
Default : Нет
Forced : Нет
Текст #1
Идентификатор : 9
Формат : UTF-8
Идентификатор кодека : S_TEXT/UTF8
Идентификатор кодека/Информация : UTF-8 Plain Text
Язык : Russian
Default : Нет
Forced : Нет
Текст #2
Идентификатор : 10
Формат : UTF-8
Идентификатор кодека : S_TEXT/UTF8
Идентификатор кодека/Информация : UTF-8 Plain Text
Язык : English
Default : Нет
Forced : Нет
Меню
00:00:00.000 : en:Main Titles
00:02:27.313 : en:USM Auriga
00:05:16.983 : en:Born Again
00:07:36.122 : en:An Unexpected Benefit
00:10:26.250 : en:Memories
00:13:08.078 : en:The Cargo Arrives
00:18:06.168 : en:The Deal
00:21:49.474 : en:A Little One-on-One
00:25:38.244 : en:Today's Lesson
00:28:38.591 : en:Snooping Around
00:32:46.172 : en:Caught
00:34:56.219 : en:The Escape
00:38:06.158 : en:"Evacuation"
00:42:00.142 : en:"Evacuation Incomplete"
00:49:04.858 : en:Finding a Way Out
00:52:34.442 : en:A Waste of Ammo
00:58:31.132 : en:"He's Got One Inside of Him"
01:02:46.095 : en:A Trap
01:13:56.056 : en:Call's Secret
01:16:26.206 : en:Connecting at the Chapel
01:21:15.829 : en:Into the Nest
01:24:40.575 : en:Sharing the Monster
01:27:09.932 : en:A New Baby
01:31:52.798 : en:Racing to the Betty
01:33:39.947 : en:Closing the Hatch
01:36:44.256 : en:Under Pressure
01:40:46.707 : en:"I'm a Stranger Here Myself"
01:42:27.975 : en:End Titles

Релиз подготовлен 60 - fps

[60-fps.org].t2010.torrent
Торрент: Зарегистрирован [ 2016-04-22 10:16 ] · 413A98C2C162DF766A9B0DE6BF0D3349A9ACC8E0

Скачать .torrent

Скачать

25 KB

Статус: проверено
Скачан: 0 раз
Поблагодарили:
Размер: 9,77 GB
 
Похожие Темы
 
Показать сообщения:    

Текущее время: 20-Фев 07:10

Часовой пояс: UTC + 3


Вы не можете начинать темы
Вы не можете отвечать на сообщения
Вы не можете редактировать свои сообщения
Вы не можете удалять свои сообщения
Вы не можете голосовать в опросах
Вы не можете прикреплять файлы к сообщениям
Вы можете скачивать файлы