[Цитировать]
mimok

Чжун Куй: Снежная дева и тёмный кристалл / Zhong Kui Snow Girl and the Dark Crystal (2015) BDRip 720p | 60fps«....»- Информация о фильме
Название: Чжун Куй: Снежная дева и тёмный кристалл
Оригинальное название: Zhong Kui Snow Girl and the Dark Crystal
Год выхода: 2015
Жанр: Фэнтези, приключения
Режиссер: Питер Пау, Чжао Тайню
Продюсер: Питер Пау, Xiaofen An, Патрик Хо
В ролях: Чэнь Кунь, Ли Бинбин, Уинстон Чао, Бэйэр Бао, Джайк Цзюньи, Хуань Хуан, Вэньбо Ло, Иди Хоу, Maidina, Чжии Жэнь
Описание фильма:
Молодой человек Чжун Куй — в поздней китайской мифологии повелитель демонов, а к началу эпохи Тан Чжун Куй превратился из божества, оберегающего от злых сил, в божество, усмиряющее и истребляющее демонов — наделённый таинственными силами вынужден сражаться с духами Неба, Земли и Ада ради спасения своих соотечественников и любимой женщины…
Страна: Китай, Гонконг, США
Студия: Warner Bros. Pictures Co., Village Roadshow Pictures Asia
Продолжительность: 01:57:49
Перевод: Любительский (двухголосый закадровый)
Субтитры:Отсутствуют

Дата мировой премьеры:19 февраля 2015
Бюджет:$26 400 000
Файл
Формат: MKV
Кодек: MPEG-4 AVC/H.264
Качество: BDRip 720p
Видео: ~ 8152 Кбит/сек, 1280 x 536, 59.940 кадров/сек
Аудио: AC3 5.1, 48.0 KHz, 448 Кбит/сек - Русский

MediaInfo

Общее
Уникальный идентификатор : 239999977438229664626753763243602841468 (0xB48E50774773A2BB8E2BDBF022398F7C)
Полное имя : E:\Торренты\Snow Girl and the Dark Crystal 60fps.mkv
Формат : Matroska
Версия формата : Version 2
Размер файла : 7,22 Гбайт
Продолжительность : 1 ч. 57 м.
Общий поток : 8775 Кбит/сек
Дата кодирования : UTC 2016-04-15 12:44:58
Программа кодирования : mkvmerge v6.1.0 ('Old Devil') built on Mar 4 2013 09:10:42
Библиотека кодирования : libebml v1.3.0 + libmatroska v1.4.0
Видео
Идентификатор : 1
Формат : AVC
Формат/Информация : Advanced Video Codec
Профиль формата : High@L4.1
Параметр CABAC формата : Да
Параметр ReFrames формата : 6 кадров
Идентификатор кодека : V_MPEG4/ISO/AVC
Продолжительность : 1 ч. 57 м.
Битрейт : 8152 Кбит/сек
Ширина : 1280 пикселей
Высота : 536 пикселей
Соотношение сторон : 2,40:1
Режим частоты кадров : Постоянный
Частота кадров : 59,940 (59940/1000) кадров/сек
Цветовое пространство : YUV
Субдискретизация насыщенности : 4:2:0
Битовая глубина : 8 бит
Тип развёртки : Прогрессивная
Бит/(Пиксели*Кадры) : 0.198
Размер потока : 6,71 Гбайт (93%)
Библиотека кодирования : x264 core 130 r2273 b3065e6
Настройки программы : cabac=1 / ref=6 / deblock=1:0:0 / analyse=0x3:0x133 / me=umh / subme=8 / psy=1 / psy_rd=1.00:0.15 / mixed_ref=1 / me_range=20 / chroma_me=1 / trellis=2 / 8x8dct=1 / cqm=0 / deadzone=21,11 / fast_pskip=0 / chroma_qp_offset=-3 / threads=6 / lookahead_threads=2 / sliced_threads=0 / nr=0 / decimate=0 / interlaced=0 / bluray_compat=0 / constrained_intra=0 / bframes=8 / b_pyramid=2 / b_adapt=2 / b_bias=0 / direct=1 / weightb=1 / open_gop=0 / weightp=2 / keyint=250 / keyint_min=25 / scenecut=40 / intra_refresh=0 / rc=crf / mbtree=0 / crf=17.0 / qcomp=0.63 / qpmin=10 / qpmax=51 / qpstep=4 / ip_ratio=1.40 / pb_ratio=1.30 / aq=1:1.20
Default : Да
Forced : Нет
Аудио
Идентификатор : 2
Формат : AC-3
Формат/Информация : Audio Coding 3
Расширение режима : CM (complete main)
Параметр Endianness формата : Big
Идентификатор кодека : A_AC3
Продолжительность : 1 ч. 57 м.
Вид битрейта : Постоянный
Битрейт : 448 Кбит/сек
Каналы : 6 каналов
Расположение каналов : Front: L C R, Side: L R, LFE
Частота : 48,0 КГц
Частота кадров : 31,250 кадров/сек (1536 spf)
Метод сжатия : С потерями
Размер потока : 378 Мбайт (5%)
Default : Да
Forced : Нет
Скриншоты:

Релиз подготовлен 60 - fps

[60-fps.org].t2001.torrent
Торрент: Зарегистрирован [ 2016-04-17 20:13 ] · 396A7EC97221254D6BB063C525BDE7F93D67E4CB

Скачать .torrent

Скачать

36 KB

Статус: проверено
Скачан: 15 раз
Поблагодарили:
Размер: 7,22 GB
 
 
Показать сообщения:    

Текущее время: 20-Фев 07:07

Часовой пояс: UTC + 3


Вы не можете начинать темы
Вы не можете отвечать на сообщения
Вы не можете редактировать свои сообщения
Вы не можете удалять свои сообщения
Вы не можете голосовать в опросах
Вы не можете прикреплять файлы к сообщениям
Вы можете скачивать файлы