[Цитировать]
Kryl

«Twelve outrageous guests. Four scandalous requests. And one lone bellhop, in his first day on the job, who's in for the wildest New year's Eve of his life»- Информация
Название: Четыре комнаты
Оригинальное название: Four Rooms
Год выхода: 1995
Жанр: комедия
Режиссер: Эллисон Андерс, Александр Рокуэлл, Роберт Родригес
Сценарий: Эллисон Андерс, Александр Рокуэлл, Роберт Родригес
Продюсер: Лоуренс Бендер, Пол Хеллерман, Скотт Ламберт
В ролях: Тим Рот, Мадонна, Дэвид Провэл, Мариса Томей, Антонио Бандерас, Квентин Тарантино, Брюс Уиллис, Айони Скай, Сальма Хайек, Валерия Голино, Аманда Де Кадене, Сэмми Дэвис
--Сюжет:
Озорная комедия состоит из четырех новелл (каждый режиссёр сделал по одной), связанных одним героем — коридорным Тедом, вышедшим на работу накануне Нового года.
Он попадает на шабаш ведьм, чуть не погибает от руки ревнивого мужа, еле уносит ноги от шаловливых детишек гангстера, принимает участие в странном пари эксцентричных господ.
Но, несмотря на все сомнительные приключения, коридорный сохраняет невозмутимость в любых, самых невероятных ситуациях.
- Страна: США
Продолжительность: 01:37:48

Файл
Кодек: MPEG4/ISO/AVC H.264 | High@L4.2 |
Формат: MKV
Качество: BDRip 1080p | 60 fps
Видео: 1920 x 1028 (1.868) | 59.940 fps | 25.0 Мбит/сек
Аудио 1: DTS | 5.1 | 48 kHz | 1509 kbps | 16 bit | Профессиональный двухголосый - Premier Digital |
Аудио 2: DTS | 5.1 | 48 kHz | 1509 kbps | 16 bit | Авторский одноголосый - Юрий Живов |
Аудио 3: AC3 | 5.1 | 48 kHz | 384 kbps | 16 bit | Авторский одноголосый - Владимир Завгородний |
Аудио 4: AC3 | 2.0 | 48 kHz | 192 kbps | 16 bit | Авторский одноголосый - Михаил Иванов |
Аудио 5: DTS | 5.1 | 48 kHz | 1509 kbps | 16 bit | ENG |
Субтитры: Ru, Eng

MedifInfo

Видео
Идентификатор : 1
Формат : AVC
Формат/Информация : Advanced Video Codec
Профиль формата : High@L4.2
Параметр CABAC формата : Да
Параметр ReFrames формата : 3 кадра
Идентификатор кодека : V_MPEG4/ISO/AVC
Продолжительность : 1 ч. 37 м.
Вид битрейта : Переменный
Битрейт : 23,9 Мбит/сек
Максимальный битрейт : 25,0 Мбит/сек
Ширина : 1920 пикселей
Высота : 1028 пикселей
Соотношение сторон : 1,85:1
Режим частоты кадров : Постоянный
Частота кадров : 59,880 кадров/сек
Частота кадров в оригинале : 59,940 кадров/сек
Стандарт вещания : PAL
Цветовое пространство : YUV
Субдискретизация насыщенности : 4:2:0
Битовая глубина : 8 бит
Тип развёртки : Прогрессивная
Бит/(Пиксели*Кадры) : 0.202
Размер потока : 16,3 Гбайт (81%)
Заголовок : www.60-fps.org
Язык : English
Default : Да
Forced : Нет
Основные цвета : BT.709
Характеристики трансфера : BT.709
Коэффициенты матрицы : BT.709
colour_range : Limited
Аудио #1
Идентификатор : 2
Формат : DTS
Формат/Информация : Digital Theater Systems
Режим : 16
Параметр Endianness формата : Big
Идентификатор кодека : A_DTS
Продолжительность : 1 ч. 37 м.
Вид битрейта : Постоянный
Битрейт : 1509 Кбит/сек
Каналы : 6 каналов
Расположение каналов : Front: L C R, Side: L R, LFE
Частота : 48,0 КГц
Битовая глубина : 16 бит
Метод сжатия : С потерями
Размер потока : 1,03 Гбайт (5%)
Заголовок : DVO (Premier Digital)
Язык : Russian
Default : Да
Forced : Нет
Аудио #2
Идентификатор : 3
Формат : DTS
Формат/Информация : Digital Theater Systems
Режим : 16
Параметр Endianness формата : Big
Идентификатор кодека : A_DTS
Продолжительность : 1 ч. 37 м.
Вид битрейта : Постоянный
Битрейт : 1509 Кбит/сек
Каналы : 6 каналов
Расположение каналов : Front: L C R, Side: L R, LFE
Частота : 48,0 КГц
Битовая глубина : 16 бит
Метод сжатия : С потерями
Размер потока : 1,03 Гбайт (5%)
Заголовок : AVO (Юрий Живов)
Язык : Russian
Default : Нет
Forced : Нет
Аудио #3
Идентификатор : 4
Формат : AC-3
Формат/Информация : Audio Coding 3
Расширение режима : CM (complete main)
Параметр Endianness формата : Big
Идентификатор кодека : A_AC3
Продолжительность : 1 ч. 37 м.
Вид битрейта : Постоянный
Битрейт : 384 Кбит/сек
Каналы : 6 каналов
Расположение каналов : Front: L C R, Side: L R, LFE
Частота : 48,0 КГц
Битовая глубина : 16 бит
Метод сжатия : С потерями
Размер потока : 269 Мбайт (1%)
Заголовок : AVO (Владимир Завгородний)
Язык : Russian
Default : Нет
Forced : Нет
Аудио #4
Идентификатор : 5
Формат : AC-3
Формат/Информация : Audio Coding 3
Расширение режима : CM (complete main)
Параметр Endianness формата : Big
Идентификатор кодека : A_AC3
Продолжительность : 1 ч. 37 м.
Вид битрейта : Постоянный
Битрейт : 192 Кбит/сек
Каналы : 2 канала
Расположение каналов : Front: L R
Частота : 48,0 КГц
Битовая глубина : 16 бит
Метод сжатия : С потерями
Размер потока : 134 Мбайт (1%)
Заголовок : AVO (Михаил Иванов)
Язык : Russian
Default : Нет
Forced : Нет
Аудио #5
Идентификатор : 6
Формат : DTS
Формат/Информация : Digital Theater Systems
Режим : 16
Параметр Endianness формата : Big
Идентификатор кодека : A_DTS
Продолжительность : 1 ч. 37 м.
Вид битрейта : Постоянный
Битрейт : 1509 Кбит/сек
Каналы : 6 каналов
Расположение каналов : Front: L C R, Side: L R, LFE
Частота : 48,0 КГц
Битовая глубина : 16 бит
Метод сжатия : С потерями
Размер потока : 1,03 Гбайт (5%)
Заголовок : Original
Язык : English
Default : Нет
Forced : Нет
Текст #1
Идентификатор : 7
Формат : UTF-8
Идентификатор кодека : S_TEXT/UTF8
Идентификатор кодека/Информация : UTF-8 Plain Text
Заголовок : русские
Язык : Russian
Default : Нет
Forced : Нет
Текст #2
Идентификатор : 8
Формат : UTF-8
Идентификатор кодека : S_TEXT/UTF8
Идентификатор кодека/Информация : UTF-8 Plain Text
Заголовок : английские
Default : Нет
Forced : Нет

Релиз подготовлен 60 - fps



Последний раз редактировалось: Kryl (2016-08-22 08:00), всего редактировалось 1 раз

[Цитировать]
Владимир 1965

Спасибо хороших фильмов в 60 fps должно быть много
 
Показать сообщения:    

Текущее время: 07-Дек 19:19

Часовой пояс: UTC + 3


Вы не можете начинать темы
Вы не можете отвечать на сообщения
Вы не можете редактировать свои сообщения
Вы не можете удалять свои сообщения
Вы не можете голосовать в опросах
Вы не можете прикреплять файлы к сообщениям
Вы не можете скачивать файлы