Властелин колец: Трилогия / The Lord of the Rings: Trilogy (2001-2003) BDRip-AVC | Extended Cut | 60 fps Принц Персии: Пески времени / Prince of Persia: The Sands of Time (2010) BDRip 1080p | 60 fps Достать ножи / Knives Out (2019) BDRip 1080p | 60 fps День, когда Земля остановилась / The Day the Earth Stood Still (2008) BDRip 1080p | 60 fps К звёздам / Ad Astra (2019) BDRip 1080p | 60 fps Удивительное путешествие доктора Дулиттла / Dolittle (2020) BDRip 1080p | 60 fps Однажды в… Голливуде / Once Upon a Time... in Hollywood (2019) BDRip 1080p | 60 fps Охота / The Hunt (2020) BDRip 1080p | 60 fps
  1. Longevity:
    5 years 11 months
    Posts:
    311
    Gender:
    Male
    Фильм «Он пришел из другого мира, чтобы разрушить этот» Фильм- Информация
    Название: Чернокнижник 2: Армагеддон
    Оригинальное название: Warlock: The Armageddon
    Год выхода: 1993
    Жанр: Ужасы, фэнтези
    Режиссер: Энтони Хикокс
    Сценарий: Кевин Рок, Сэм Бернард, Дэвид Туи
    Продюсер: Питер Абрамс, Роберт Л. Леви, Сэм Бернард
    В ролях: Джулиан Сэндс, Крис Янг, Пола Маршалл, Джоанна Пакула, Стив Кэхэн, Р.Г. Армстронг, Чарльз Хэллахан, Брюс Гловер, Крэйг Хёрли, Дэвис Гейнс, Ребекка Стрит и др.
    --Сюжет:
    Чернокнижник, единственный сын Сатаны, вернулся, чтобы найти шесть магических камней, которые были потеряны на протяжении веков. Вместе эти камни создают страшную силу, которая отдает мир во власть Сатаны. В распоряжении Чернокнижника только 7 дней (между солнечным и лунным затмениями), и он неумолим в своих поисках.
    Сила его магии растет по мере получения каждого камня. Но двое влюбленных встают на его пути. Последним из рода священников — Друидов — Кенни и Саманте открывается их предназначение. Они единственные, кто обладает зеленой магией Друидов, которая может остановить Чернокнижника и спасти мир.
    - Страна: США
    Продолжительность: 01:38:08

    Файл
    Кодек: MPEG4/ISO/AVC H.264
    Формат: MKV
    Качество: BDRip 720p | 60 fps
    Видео: 1280 x 720 (16:9) | 59.940 fps | 9124 Кбит/сек
    Аудио#1: AC3 | 2.0 | 48 kHz | 192 kbps | 16 bit | Дубляж ,Хлопушка |
    Аудио#2: AC3 | 2.0 | 48 kHz | 224 kbps | 16 bit | Многоголосый закадровый ,R5/ТВ3 |
    Аудио#3: AC3 | 2.0 | 48 kHz | 192 kbps | 16 bit | Многоголосый закадровый ,Нева-1 |
    Аудио#4: AC3 | 2.0 | 48 kHz | 192 kbps | 16 bit | Одноголосый закадровый ,В.Дохалов |
    Аудио#5: AC3 | 2.0 | 48 kHz | 192 kbps | 16 bit | Одноголосый закадровый ,В.Горчаков |
    Аудио#6: AC3 | 2.0 | 48 kHz | 192 kbps | 16 bit | Одноголосый закадровый ,Л.Володарский |
    Субтитры: Russian, English

    MedifInfo

    Общее
    Уникальный идентификатор : 193773108397113644661987068630136664521 (0x91C757DB2984B1F994122BC094EE31C9)
    Полное имя : E:\Торренты\Warlock.TheArmageddon 60fps.mkv
    Формат : Matroska
    Версия формата : Version 4 / Version 2
    Размер файла : 7,21 Гбайт
    Продолжительность : 1 ч. 38 м.
    Общий поток : 10,5 Мбит/сек
    Дата кодирования : UTC 2016-12-02 15:16:29
    Программа кодирования : mkvmerge v6.9.1 ('Blue Panther') 64bit built on Apr 18 2014 18:23:38
    Библиотека кодирования : libebml v1.3.0 + libmatroska v1.4.1
    Видео
    Идентификатор : 1
    Формат : AVC
    Формат/Информация : Advanced Video Codec
    Профиль формата : High@L4.1
    Параметр CABAC формата : Да
    Параметр ReFrames формата : 6 кадров
    Идентификатор кодека : V_MPEG4/ISO/AVC
    Продолжительность : 1 ч. 38 м.
    Битрейт : 9124 Кбит/сек
    Ширина : 1280 пикселей
    Высота : 720 пикселей
    Соотношение сторон : 16:9
    Режим частоты кадров : Постоянный
    Частота кадров : 59,940 (59940/1000) кадров/сек
    Цветовое пространство : YUV
    Субдискретизация насыщенности : 4:2:0
    Битовая глубина : 8 бит
    Тип развёртки : Прогрессивная
    Бит/(Пиксели*Кадры) : 0.165
    Размер потока : 6,25 Гбайт (87%)
    Заголовок : Release by mimok
    Библиотека кодирования : x264 core 130 r2273 b3065e6
    Настройки программы : cabac=1 / ref=6 / deblock=1:-1:-1 / analyse=0x3:0x133 / me=umh / subme=8 / psy=1 / psy_rd=1.00:0.15 / mixed_ref=1 / me_range=20 / chroma_me=1 / trellis=2 / 8x8dct=1 / cqm=0 / deadzone=21,11 / fast_pskip=0 / chroma_qp_offset=-3 / threads=6 / lookahead_threads=2 / sliced_threads=0 / nr=0 / decimate=0 / interlaced=0 / bluray_compat=0 / constrained_intra=0 / bframes=8 / b_pyramid=2 / b_adapt=2 / b_bias=0 / direct=1 / weightb=1 / open_gop=0 / weightp=2 / keyint=250 / keyint_min=25 / scenecut=40 / intra_refresh=0 / rc=crf / mbtree=0 / crf=16.0 / qcomp=0.63 / qpmin=10 / qpmax=51 / qpstep=4 / ip_ratio=1.40 / pb_ratio=1.30 / aq=2:1.20
    Default : Да
    Forced : Нет
    Аудио #1
    Идентификатор : 2
    Формат : AC-3
    Формат/Информация : Audio Coding 3
    Расширение режима : CM (complete main)
    Параметр Endianness формата : Big
    Идентификатор кодека : A_AC3
    Продолжительность : 1 ч. 38 м.
    Вид битрейта : Постоянный
    Битрейт : 192 Кбит/сек
    Каналы : 2 канала
    Расположение каналов : Front: L R
    Частота : 48,0 КГц
    Частота кадров : 31,250 кадров/сек (1536 spf)
    Метод сжатия : С потерями
    Размер потока : 135 Мбайт (2%)
    Заголовок : Dub
    Язык : Russian
    Default : Да
    Forced : Нет
    Аудио #2
    Идентификатор : 3
    Формат : AC-3
    Формат/Информация : Audio Coding 3
    Расширение режима : CM (complete main)
    Параметр Endianness формата : Big
    Идентификатор кодека : A_AC3
    Продолжительность : 1 ч. 38 м.
    Вид битрейта : Постоянный
    Битрейт : 224 Кбит/сек
    Каналы : 2 канала
    Расположение каналов : Front: L R
    Частота : 48,0 КГц
    Частота кадров : 31,250 кадров/сек (1536 spf)
    Метод сжатия : С потерями
    Размер потока : 157 Мбайт (2%)
    Заголовок : ТВ-3
    Язык : Russian
    Default : Нет
    Forced : Нет
    Аудио #3
    Идентификатор : 4
    Формат : AC-3
    Формат/Информация : Audio Coding 3
    Расширение режима : CM (complete main)
    Параметр Endianness формата : Big
    Идентификатор кодека : A_AC3
    Продолжительность : 1 ч. 38 м.
    Вид битрейта : Постоянный
    Битрейт : 192 Кбит/сек
    Каналы : 2 канала
    Расположение каналов : Front: L R
    Частота : 48,0 КГц
    Частота кадров : 31,250 кадров/сек (1536 spf)
    Метод сжатия : С потерями
    Размер потока : 135 Мбайт (2%)
    Заголовок : Нева-1
    Язык : Russian
    Default : Нет
    Forced : Нет
    Аудио #4
    Идентификатор : 5
    Формат : AC-3
    Формат/Информация : Audio Coding 3
    Расширение режима : CM (complete main)
    Параметр Endianness формата : Big
    Идентификатор кодека : A_AC3
    Продолжительность : 1 ч. 38 м.
    Вид битрейта : Постоянный
    Битрейт : 192 Кбит/сек
    Каналы : 2 канала
    Расположение каналов : Front: L R
    Частота : 48,0 КГц
    Частота кадров : 31,250 кадров/сек (1536 spf)
    Метод сжатия : С потерями
    Размер потока : 135 Мбайт (2%)
    Заголовок : Горчаков
    Язык : Russian
    Default : Нет
    Forced : Нет
    Аудио #5
    Идентификатор : 6
    Формат : AC-3
    Формат/Информация : Audio Coding 3
    Расширение режима : CM (complete main)
    Параметр Endianness формата : Big
    Идентификатор кодека : A_AC3
    Продолжительность : 1 ч. 38 м.
    Вид битрейта : Постоянный
    Битрейт : 192 Кбит/сек
    Каналы : 2 канала
    Расположение каналов : Front: L R
    Частота : 48,0 КГц
    Частота кадров : 31,250 кадров/сек (1536 spf)
    Метод сжатия : С потерями
    Размер потока : 135 Мбайт (2%)
    Заголовок : Дохалов
    Язык : Russian
    Default : Нет
    Forced : Нет
    Аудио #6
    Идентификатор : 7
    Формат : AC-3
    Формат/Информация : Audio Coding 3
    Расширение режима : CM (complete main)
    Параметр Endianness формата : Big
    Идентификатор кодека : A_AC3
    Продолжительность : 1 ч. 38 м.
    Вид битрейта : Постоянный
    Битрейт : 192 Кбит/сек
    Каналы : 2 канала
    Расположение каналов : Front: L R
    Частота : 48,0 КГц
    Частота кадров : 31,250 кадров/сек (1536 spf)
    Метод сжатия : С потерями
    Размер потока : 135 Мбайт (2%)
    Заголовок : Володарский
    Язык : Russian
    Default : Нет
    Forced : Нет
    Текст #1
    Идентификатор : 8
    Формат : UTF-8
    Идентификатор кодека : S_TEXT/UTF8
    Идентификатор кодека/Информация : UTF-8 Plain Text
    Заголовок : Full
    Язык : Russian
    Default : Да
    Forced : Нет
    Текст #2
    Идентификатор : 9
    Формат : UTF-8
    Идентификатор кодека : S_TEXT/UTF8
    Идентификатор кодека/Информация : UTF-8 Plain Text
    Заголовок : Full
    Язык : English
    Default : Нет
    Forced : Нет

    Release was prepared by 60 - fps



You cannot post new topics in this forum
You cannot reply to topics in this forum
You cannot edit your posts in this forum
You cannot delete your posts in this forum
You cannot vote in polls in this forum
You cannot attach files in this forum
You cannot download files in this forum