1. Longevity:
    5 years 1 month
    Posts:
    1675
    Gender:
    Male
    Заказать фильмы,клипы или какой то другое видео - может каждый,
    стоимость одного видео 50руб. !!!
    Пишите мне в личку,всё обсудим... !
    Чёрная Вдова / Black Widow (2021) BDRip 1080p | 60 fps Информация
    Название: Чёрная Вдова
    Оригинальное название: Black Widow
    Год выхода: 2021
    Жанр: Фантастика, боевик, приключения
    Режиссер: Кейт Шортланд
    В ролях: Скарлетт Йоханссон, Флоренс Пью, Дэвид Харбор, О. Т. Фагбенли, Ольга Куриленко, Уильям Хёрт, Рэй Уинстон, Рэйчел Вайс, Эвер Андерсон, Виолет Макгроу
    Страна: США
    Продолжительность: 2 ч. 13 м. 46 с.
    ----- Сюжет:
    Наташе Романофф предстоит лицом к лицу встретиться со своим прошлым. Чёрной Вдове придется вспомнить о том, что было в её жизни задолго до присоединения к команде Мстителей, и узнать об опасном заговоре, в который оказываются втянуты её старые знакомые — Елена, Алексей (известный как Красный Страж) и Мелина.. ----- Файл
    Кодек: V_MPEG4/ISO/AVC
    Формат: MKV
    Качество: WEB-DL 1080p | 60 fps
    Видео: 1920 x 800 (2.400) | 59.940 fps | 18.5 Мбит/сек
    Аудио 1: AC-3 | 5.1 | 48 kHz | 384 Кбит/сек | 16 bit | Дубляж (iTunes) |
    Аудио 3: Atmos / TrueHD | 7.1 | 48 kHz | 4284 Кбит/сек | 24 bit | Оригинал |
    Субтитры:

    MedifInfo

    Видео
    Идентификатор : 1
    Формат : AVC
    Формат/Информация : Advanced Video Codec
    Профиль формата : [email protected]
    Параметр CABAC формата : Да
    Параметр ReFrames формата : 4 кадра
    Идентификатор кодека : V_MPEG4/ISO/AVC
    Продолжительность : 2 ч. 13 м.
    Битрейт : 18,5 Мбит/сек
    Ширина : 1920 пикселей
    Высота : 800 пикселей
    Соотношение сторон : 2,40:1
    Режим частоты кадров : Постоянный
    Частота кадров : 59,940 (60000/1001) кадров/сек
    Цветовое пространство : YUV
    Субдискретизация насыщенности : 4:2:0
    Битовая глубина : 8 бит
    Тип развёртки : Прогрессивная
    Бит/(Пиксели*Кадры) : 0.201
    Размер потока : 17,2 Гбайт (80%)
    Заголовок : Чёрная Вдова (Талямба)
    Библиотека кодирования : x264 core 146 r2538 121396c
    Настройки программы : cabac=1 / ref=3 / deblock=1:0:0 / analyse=0x3:0x113 / me=hex / subme=7 / psy=1 / psy_rd=1.00:0.25 / mixed_ref=1 / me_range=16 / chroma_me=1 / trellis=1 / 8x8dct=1 / cqm=0 / deadzone=6,6 / fast_pskip=1 / chroma_qp_offset=-4 / threads=36 / lookahead_threads=6 / sliced_threads=0 / nr=0 / decimate=0 / interlaced=0 / bluray_compat=0 / constrained_intra=0 / bframes=3 / b_pyramid=2 / b_adapt=1 / b_bias=0 / direct=1 / weightb=1 / open_gop=0 / weightp=2 / keyint=599 / keyint_min=59 / scenecut=40 / intra_refresh=0 / rc_lookahead=40 / rc=2pass / mbtree=1 / bitrate=18500 / ratetol=1.0 / qcomp=0.80 / qpmin=0 / qpmax=69 / qpstep=4 / cplxblur=20.0 / qblur=0.5 / vbv_maxrate=50000 / vbv_bufsize=50000 / nal_hrd=none / filler=0 / ip_ratio=1.10 / aq=1:0.50
    Язык : English
    Default : Да
    Forced : Нет
    Аудио #1
    Идентификатор : 2
    Формат : AC-3
    Формат/Информация : Audio Coding 3
    Расширение режима : CM (complete main)
    Параметр Endianness формата : Big
    Идентификатор кодека : A_AC3
    Продолжительность : 2 ч. 13 м.
    Вид битрейта : Постоянный
    Битрейт : 384 Кбит/сек
    Каналы : 6 каналов
    Расположение каналов : Front: L C R, Side: L R, LFE
    Частота : 48,0 КГц
    Частота кадров : 31,250 кадров/сек (1536 spf)
    Битовая глубина : 16 бит
    Метод сжатия : С потерями
    Размер потока : 367 Мбайт (2%)
    Заголовок : Дубляж (iTunes)
    Язык : Russian
    Default : Да
    Forced : Да
    Аудио #2
    Идентификатор : 3
    Формат : Atmos / TrueHD
    Идентификатор кодека : A_TRUEHD
    Продолжительность : 2 ч. 13 м.
    Вид битрейта : Переменный
    Битрейт : 4284 Кбит/сек
    Максимальный битрейт : 7737 Кбит/сек
    Каналы : Object Based / 8 каналов
    Расположение каналов : Object Based / Front: L C R, Side: L R, Back: L R, LFE
    Частота : / 48,0 КГц
    Частота кадров : 1200,000 кадров/сек (40 spf)
    Метод сжатия : Без потерь
    Размер потока : 4,00 Гбайт (18%)
    Заголовок : Original
    Язык : English
    Default : Нет
    Forced : Нет
    Текст #1
    Идентификатор : 4
    Формат : UTF-8
    Идентификатор кодека : S_TEXT/UTF8
    Идентификатор кодека/Информация : UTF-8 Plain Text
    Продолжительность : 2 ч. 10 м.
    Битрейт : 1 бит/сек
    Count of elements : 27
    Размер потока : 995 байт (0%)
    Заголовок : Forced [iTunes]
    Язык : Russian
    Default : Да
    Forced : Да
    Текст #2
    Идентификатор : 5
    Формат : UTF-8
    Идентификатор кодека : S_TEXT/UTF8
    Идентификатор кодека/Информация : UTF-8 Plain Text
    Продолжительность : 2 ч. 12 м.
    Битрейт : 59 бит/сек
    Count of elements : 1255
    Размер потока : 58,2 Кбайт (0%)
    Заголовок : Full [iTunes]
    Язык : Russian
    Default : Нет
    Forced : Нет
    Текст #3
    Идентификатор : 6
    Формат : UTF-8
    Идентификатор кодека : S_TEXT/UTF8
    Идентификатор кодека/Информация : UTF-8 Plain Text
    Продолжительность : 2 ч. 11 м.
    Битрейт : 1 бит/сек
    Count of elements : 44
    Размер потока : 1,71 Кбайт (0%)
    Заголовок : Forced [HDRezka Studio]
    Язык : Russian
    Default : Нет
    Forced : Нет
    Текст #4
    Идентификатор : 7
    Формат : UTF-8
    Идентификатор кодека : S_TEXT/UTF8
    Идентификатор кодека/Информация : UTF-8 Plain Text
    Продолжительность : 2 ч. 12 м.
    Битрейт : 67 бит/сек
    Count of elements : 1282
    Размер потока : 65,7 Кбайт (0%)
    Заголовок : Full
    Язык : Russian
    Default : Нет
    Forced : Нет
    Текст #5
    Идентификатор : 8
    Формат : UTF-8
    Идентификатор кодека : S_TEXT/UTF8
    Идентификатор кодека/Информация : UTF-8 Plain Text
    Продолжительность : 2 ч. 13 м.
    Битрейт : 46 бит/сек
    Count of elements : 1630
    Размер потока : 45,7 Кбайт (0%)
    Заголовок : SDH
    Язык : English
    Default : Нет
    Forced : Нет
    Меню
    00:00:00.000 : Chapter 01
    00:04:55.170 : Chapter 02
    00:13:10.081 : Chapter 03
    00:16:24.567 : Chapter 04
    00:18:41.871 : Chapter 05
    00:21:41.634 : Chapter 06
    00:25:40.789 : Chapter 07
    00:30:06.346 : Chapter 08
    00:39:05.468 : Chapter 09
    00:44:46.350 : Chapter 10
    00:53:25.994 : Chapter 11
    01:01:38.153 : Chapter 12
    01:07:46.271 : Chapter 13
    01:11:40.671 : Chapter 14
    01:17:48.789 : Chapter 15
    01:27:19.234 : Chapter 16
    01:33:33.441 : Chapter 17
    01:37:37.477 : Chapter 18
    01:41:18.656 : Chapter 19
    01:45:37.873 : Chapter 20
    01:51:41.653 : Chapter 21
    01:57:09.105 : Chapter 22
    02:01:59.687 : Chapter 23
    02:04:25.458 : Chapter 24
  2. Longevity:
    5 years 1 month
    Posts:
    1675
    Gender:
    Male
    Фильм Сделал RIP именно из исходника "BluRay"... Фильм
    Ранние была версия из исходника "WEB-DL" - https://60-fps.org/topic-chernaya_vdova_black_widow...west.html#newest
    18-Sep-2021 00:48 (after 5 minutes)


You cannot post new topics in this forum
You cannot reply to topics in this forum
You cannot edit your posts in this forum
You cannot delete your posts in this forum
You cannot vote in polls in this forum
You cannot attach files in this forum
You cannot download files in this forum