[Цитировать]
mimok

Черная смерть / Black Death (2010) BDRip 720p | 60fps«Путешествие в ад...»- Информация
Название: Черная смерть
Оригинальное название: Black Death
Год выхода: 2010
Жанр: Детектив, триллер, драма, приключения
Режиссер: Кристофер Смит
Продюсер: Роберт Бернштейн, Йенс Мойрер, Дуглас Рэй
В ролях: Эдди Редмэйн, Дэниэл Стейнер, Дэвид Уорнер, Кимберли Никсон, Тобиас Казимирович, Иман Эллиотт, Шон Бин, Джонни Харрис, Энди Найман, Тиго Жернандт
Описание:
Средневековая Англия попала под тень Черной смерти. В этом апокалиптическом мире, заполненном страхом и суеверием, собираются несколько монахов, объединенных одной целью — выследить того, кто способен возвращать к жизни умерших от чумы.
Страна: Германия, Великобритания
Студия: Ecosse Films, HanWay Films
Продолжительность: 01:41:28
Перевод: Многоголосый (Лицензия)
Субтитры:Отсутствуют

Дата мировой премьеры:26 мая 2010
Дата выхода DVD релиза:3 ноября 2010, «Союз-Видео»
Дата выхода Blu-Ray релиза:21 апреля 2011, «Союз-Видео»
Файл
Формат: MKV
Кодек: MPEG-4 AVC/H.264
Качество: BDRip 720p
Видео: ~ 11.3 Мбит/сек, 1280 x 536, 60.000 кадров/сек
Аудио: AC3 5.1, 48.0 KHz, 448 Кбит/сек - Русский

MediaInfo

Общее
Уникальный идентификатор : 188977879988056323657333356256284502047 (0x8E2BD0D79604FAE58EA95CBE8B01E81F)
Полное имя : E:\Торренты\Black Death 60fps.mkv
Формат : Matroska
Версия формата : Version 2
Размер файла : 8,48 Гбайт
Продолжительность : 1 ч. 41 м.
Общий поток : 12,0 Мбит/сек
Дата кодирования : UTC 2016-07-06 02:25:05
Программа кодирования : mkvmerge v6.1.0 ('Old Devil') built on Mar 4 2013 09:10:42
Библиотека кодирования : libebml v1.3.0 + libmatroska v1.4.0
Видео
Идентификатор : 1
Формат : AVC
Формат/Информация : Advanced Video Codec
Профиль формата : High@L4.1
Параметр CABAC формата : Да
Параметр ReFrames формата : 6 кадров
Идентификатор кодека : V_MPEG4/ISO/AVC
Продолжительность : 1 ч. 41 м.
Битрейт : 11,3 Мбит/сек
Ширина : 1280 пикселей
Высота : 536 пикселей
Соотношение сторон : 2,40:1
Режим частоты кадров : Постоянный
Частота кадров : 60,000 кадров/сек
Цветовое пространство : YUV
Субдискретизация насыщенности : 4:2:0
Битовая глубина : 8 бит
Тип развёртки : Прогрессивная
Бит/(Пиксели*Кадры) : 0.274
Размер потока : 8,00 Гбайт (94%)
Библиотека кодирования : x264 core 130 r2273 b3065e6
Настройки программы : cabac=1 / ref=6 / deblock=1:-1:-1 / analyse=0x3:0x133 / me=umh / subme=8 / psy=1 / psy_rd=1.00:0.15 / mixed_ref=1 / me_range=20 / chroma_me=1 / trellis=2 / 8x8dct=1 / cqm=0 / deadzone=21,11 / fast_pskip=0 / chroma_qp_offset=-3 / threads=6 / lookahead_threads=2 / sliced_threads=0 / nr=0 / decimate=0 / interlaced=0 / bluray_compat=0 / constrained_intra=0 / bframes=8 / b_pyramid=2 / b_adapt=2 / b_bias=0 / direct=1 / weightb=1 / open_gop=0 / weightp=2 / keyint=250 / keyint_min=25 / scenecut=40 / intra_refresh=0 / rc=crf / mbtree=0 / crf=18.0 / qcomp=0.63 / qpmin=10 / qpmax=51 / qpstep=4 / ip_ratio=1.40 / pb_ratio=1.30 / aq=2:1.20
Default : Да
Forced : Нет
Аудио
Идентификатор : 2
Формат : AC-3
Формат/Информация : Audio Coding 3
Расширение режима : CM (complete main)
Параметр Endianness формата : Big
Идентификатор кодека : A_AC3
Продолжительность : 1 ч. 41 м.
Вид битрейта : Постоянный
Битрейт : 448 Кбит/сек
Каналы : 6 каналов
Расположение каналов : Front: L C R, Side: L R, LFE
Частота : 48,0 КГц
Частота кадров : 31,250 кадров/сек (1536 spf)
Метод сжатия : С потерями
Размер потока : 325 Мбайт (4%)
Default : Да
Forced : Нет
Скриншоты:

Релиз подготовлен 60 - fps

[Цитировать]
yiraiga

THANKS GOOD MOVIE

[Цитировать]
ENIGMA

Спасибо Улыбаюсь
 
Показать сообщения:    

Текущее время: 08-Дек 19:08

Часовой пояс: UTC + 3


Вы не можете начинать темы
Вы не можете отвечать на сообщения
Вы не можете редактировать свои сообщения
Вы не можете удалять свои сообщения
Вы не можете голосовать в опросах
Вы не можете прикреплять файлы к сообщениям
Вы не можете скачивать файлы