Чёрная Пантера / Black Panther (2018) BDRip 1080p | 60 fps Ночные игры / Game Night (2018) BDRip 720p | 60 fps Тихоокеанский рубеж 2 / Pacific Rim: Uprising (2018) BDRip 1080p | 60 fps Ограбление в ураган / The Hurricane Heist (2018) BDRip 720p | 60 fps Чёрная Пантера / Black Panther (2018) BDRip 720p | 60 fps Красный воробей / Red Sparrow (2018) BDRip 720p | 60 fps Я худею (2018) BDRip 1080p | 60 FPS Поезд на Париж / The 15:17 to Paris (2018) BDRip 720p | 60 fps
  1. Стаж:
    3 года 8 месяцев
    Сообщений:
    2334
    Пол:
    Мужской
    «Да здравствует король» Информация
    Название: Чёрная Пантера
    Оригинальное название: Black Panther
    Год выхода: 2018
    Жанр: Фантастика, боевик, приключения, супергерой
    Режиссер: Райан Куглер
    Сценарий: Райан Куглер, Джо Роберт Коул
    Продюсер: Виктория Алонсо, Джеффри Чернов
    В ролях: Чэдвик Боузмэн, Майкл Б. Джордан, Лупита Нионго, Данай Джекесай Гурира, Мартин Фриман, Дэниэл Калуя, Летишиа Райт, Уинстон Дьюк, Стерлинг К. Браун, Анджела Бассетт

    Сюжет:
    Несколько веков назад на территорию пяти враждующих африканских племен упал метеорит из вибраниума - редкого металла, способного поглощать вибрацию и направленную на него кинетическую энергию. Один из воинов съедает несколько соцветий "сердцевидной травы", пораженной внеземным сплавом. Он получает неестественные способности, становится первой "Черной пантерой" и объединяет все племена (кроме гордых сыновей гор) в один народ, заложив основы единого государства под названием Ваканда. Жить стало лучше, жить стало веселее. Со временем примитивные пастухи освоили самые передовые технологии с использованием вибраниума, что позволило им достичь рекордных показателей по настригам и надоям, кардинально увеличить срок эксплуатации охотничьих копий, а также отказаться от дотаций и братских рук помощи. И если кто-то извне все-таки решался посягнуть на национальное достояние вакандцев - Черная пантера моментально пресекала недвусмысленные поползновения, стоя на страже мира и прогресса. Но теперь легендарному духу саванны предстоит столкнуться с новым врагом, не уступающим в силе и ловкости главному защитнику Ваканды.

    Страна: США
    Продолжительность: 02:14:44

    Файл
    Кодек: H.264
    Формат: MKV
    Качество: BDRip 720p | 60 fps
    Видео: 1280 x 536 (2.388) | 59.940 fps | 10.0 Мбит/сек
    Аудио 01: AC3 | 5.1 | 48 kHz | 384 kbps | 16 bit | Дубляж - iTunes |
    Аудио 02: AC3 | 2.0 | 48 kHz | 192 kbps | 16 bit | HDRezka Studio |
    Аудио 03: AC3 | 5.1 | 48 kHz | 448 kbps | 16 bit | english |
    Субтитры: Русские (forced, full, SDH (iTunes)), английские (full, SDH, SDH Colored)

    MedifInfo

    Видео
    Идентификатор : 1
    Формат : AVC
    Формат/Информация : Advanced Video Codec
    Профиль формата : High@L4.1
    Параметр CABAC формата : Да
    Параметр ReFrames формата : 3 кадра
    Параметр GOP формата : M=3, N=72
    Идентификатор кодека : V_MPEG4/ISO/AVC
    Продолжительность : 2 ч. 14 м.
    Вид битрейта : Переменный
    Битрейт : 9631 Кбит/сек
    Максимальный битрейт : 10000 Кбит/сек
    Ширина : 1280 пикселей
    Высота : 536 пикселей
    Соотношение сторон : 2,40:1
    Режим частоты кадров : Постоянный
    Частота кадров : 59,880 кадров/сек
    Частота кадров в оригинале : 59,940 кадров/сек
    Стандарт вещания : PAL
    Цветовое пространство : YUV
    Субдискретизация насыщенности : 4:2:0
    Битовая глубина : 8 бит
    Тип развёртки : Прогрессивная
    Бит/(Пиксели*Кадры) : 0.234
    Размер потока : 9,06 Гбайт (89%)
    Заголовок : www.60-fps.org
    Язык : English
    Default : Да
    Forced : Нет
    Основные цвета : BT.601 NTSC
    Характеристики трансфера : BT.601
    Коэффициенты матрицы : BT.601
    colour_range : Limited
    Аудио #1
    Идентификатор : 2
    Формат : AC-3
    Формат/Информация : Audio Coding 3
    Расширение режима : CM (complete main)
    Параметр Endianness формата : Big
    Идентификатор кодека : A_AC3
    Продолжительность : 2 ч. 14 м.
    Вид битрейта : Постоянный
    Битрейт : 384 Кбит/сек
    Каналы : 6 каналов
    Расположение каналов : Front: L C R, Side: L R, LFE
    Частота : 48,0 КГц
    Битовая глубина : 16 бит
    Метод сжатия : С потерями
    Размер потока : 370 Мбайт (4%)
    Заголовок : Дубляж - iTunes
    Язык : Russian
    Default : Да
    Forced : Нет
    Аудио #2
    Идентификатор : 3
    Формат : AC-3
    Формат/Информация : Audio Coding 3
    Расширение режима : CM (complete main)
    Параметр Endianness формата : Big
    Идентификатор кодека : A_AC3
    Продолжительность : 2 ч. 14 м.
    Вид битрейта : Постоянный
    Битрейт : 192 Кбит/сек
    Каналы : 2 канала
    Расположение каналов : Front: L R
    Частота : 48,0 КГц
    Битовая глубина : 16 бит
    Метод сжатия : С потерями
    Размер потока : 185 Мбайт (2%)
    Заголовок : HDRezka Studio
    Язык : Russian
    Default : Нет
    Forced : Нет
    Аудио #3
    Идентификатор : 4
    Формат : AC-3
    Формат/Информация : Audio Coding 3
    Расширение режима : CM (complete main)
    Параметр Endianness формата : Big
    Идентификатор кодека : A_AC3
    Продолжительность : 2 ч. 14 м.
    Вид битрейта : Постоянный
    Битрейт : 448 Кбит/сек
    Каналы : 6 каналов
    Расположение каналов : Front: L C R, Side: L R, LFE
    Частота : 48,0 КГц
    Битовая глубина : 16 бит
    Метод сжатия : С потерями
    Размер потока : 432 Мбайт (4%)
    Заголовок : english
    Язык : English
    Default : Нет
    Forced : Нет
    Текст #1
    Идентификатор : 5
    Формат : UTF-8
    Идентификатор кодека : S_TEXT/UTF8
    Идентификатор кодека/Информация : UTF-8 Plain Text
    Заголовок : Forced
    Язык : Russian
    Default : Да
    Forced : Да
    Текст #2
    Идентификатор : 6
    Формат : UTF-8
    Идентификатор кодека : S_TEXT/UTF8
    Идентификатор кодека/Информация : UTF-8 Plain Text
    Заголовок : Full
    Язык : Russian
    Default : Нет
    Forced : Нет
    Текст #3
    Идентификатор : 7
    Формат : UTF-8
    Идентификатор кодека : S_TEXT/UTF8
    Идентификатор кодека/Информация : UTF-8 Plain Text
    Заголовок : SDH
    Язык : Russian
    Default : Нет
    Forced : Нет
    Текст #4
    Идентификатор : 8
    Формат : UTF-8
    Идентификатор кодека : S_TEXT/UTF8
    Идентификатор кодека/Информация : UTF-8 Plain Text
    Заголовок : Full
    Язык : English
    Default : Нет
    Forced : Нет
    Текст #5
    Идентификатор : 9
    Формат : UTF-8
    Идентификатор кодека : S_TEXT/UTF8
    Идентификатор кодека/Информация : UTF-8 Plain Text
    Заголовок : SDH
    Язык : English
    Default : Нет
    Forced : Нет
    Текст #6
    Идентификатор : 10
    Формат : UTF-8
    Идентификатор кодека : S_TEXT/UTF8
    Идентификатор кодека/Информация : UTF-8 Plain Text
    Заголовок : SDH Colored
    Язык : English
    Default : Нет
    Forced : Нет
    Меню
    00:00:00.000 : en:00:00:00.000
    00:06:56.291 : en:00:06:56.291
    00:12:02.805 : en:00:12:02.805
    00:19:12.360 : en:00:19:12.360
    00:28:32.961 : en:00:28:32.961
    00:33:11.698 : en:00:33:11.698
    00:40:57.497 : en:00:40:57.497
    00:48:34.036 : en:00:48:34.036
    00:53:46.098 : en:00:53:46.098
    01:01:57.339 : en:01:01:57.339
    01:08:33.026 : en:01:08:33.026
    01:16:46.769 : en:01:16:46.769
    01:22:24.022 : en:01:22:24.022
    01:31:21.434 : en:01:31:21.434
    01:41:15.361 : en:01:41:15.361
    01:50:56.483 : en:01:50:56.483
    01:59:16.941 : en:01:59:16.941
    02:02:43.648 : en:02:02:43.648

    Релиз подготовлен 60 - fps

  2. Стаж:
    4 месяца 21 день
    Сообщений:
    3
    Пол:
    Не указан
    А можно скорости(((
    10-Июн-2018 21:11 (спустя 29 дней)


Вы не можете начинать темы
Вы не можете отвечать на сообщения
Вы не можете редактировать свои сообщения
Вы не можете удалять свои сообщения
Вы не можете голосовать в опросах
Вы не можете прикреплять файлы к сообщениям
Вы не можете скачивать файлы