[Цитировать]
mimok

Черепашки Ниндзя / TMNT (2007) BDRip 720p | 60fps«Raising Shell In 2007»- Информация о фильме
Название: Черепашки Ниндзя
Оригинальное название: TMNT
Год выхода: 2007
Жанр: Мультфильм, фантастика, фэнтези, боевик, комедия, приключения, семейный
Режиссер: Кевин Манро
В ролях: Нолан Норт, Джеймс Арнольд Тейлор, Митчел Уитфилд, Мики Келли, Мако, Сара Мишель Геллар, Крис Эванс, Патрик Стюарт, Чжан Цзыи, Лоренс Фишбёрн
Описание фильма:
После поражения их старейшего врага Шредера, семья черепашек распалась. Кроме борьбы за единство семьи их сенсей Сплинтер обеспокоен еще и тем, что в Нью-Йорке происходит что-то странное. Техноиндустриалист Максимилиан Уинтерс готовит армию древних монстров, остановить которую сможет только суперкоманда бойцов ниндзя — Леонардо, Микеланджело, Донателло и Рафаэль! Вместе со своими прежними соратниками Эйприл О`Нил и Кейси Джонсом Черепашки снова в сражаются за свои жизни, им снова предстоит противостоять таинственному клану Фут, поставившему свои собственные способности ниндзя на службу интересам Уинтера.
Страна: Гонконг, США
Студия: Imagi Animation Studios, Warner Bros. Pictures
Продолжительность: 01:26:54
Перевод: Дублированный
Субтитры: Отсутствуют

Дата мировой премьеры: 22 марта 2007
Дата российской премьеры: 22 марта 2007, «West»
Дата выхода DVD релиза: 7 августа 2007, «West Video»
Файл
Формат: MKV
Кодек: MPEG-4 AVC/H.264
Качество: BDRip 720p
Видео: ~ 5314 Кбит/сек, 1280 x 536, 59.940 кадров/сек
Аудио: AC3 5.1, 48.0 KHz, 640 Кбит/сек - Русский

MediaInfo

Общее
Уникальный идентификатор : 229107384654069806859736330281662360290 (0xAC5C7A2D9DCF986984762FCE19252AE2)
Полное имя : D:\Торренты\TMNT 60fps.mkv
Формат : Matroska
Версия формата : Version 2
Размер файла : 3,69 Гбайт
Продолжительность : 1 ч. 26 м.
Общий поток : 6075 Кбит/сек
Название фильма : TMNT (2007) Blu-ray
Дата кодирования : UTC 2014-12-31 12:17:26
Программа кодирования : mkvmerge v6.9.1 ('Blue Panther') 64bit built on Apr 18 2014 18:23:38
Библиотека кодирования : libebml v1.3.0 + libmatroska v1.4.1
Видео
Идентификатор : 1
Формат : AVC
Формат/Информация : Advanced Video Codec
Профиль формата : High@L4.1
Параметр CABAC формата : Да
Параметр ReFrames формата : 6 кадров
Идентификатор кодека : V_MPEG4/ISO/AVC
Продолжительность : 1 ч. 26 м.
Битрейт : 5314 Кбит/сек
Ширина : 1280 пикселей
Высота : 536 пикселей
Соотношение сторон : 2,40:1
Режим частоты кадров : Постоянный
Частота кадров : 59,880 кадров/сек
Частота кадров в оригинале : 59,940 кадров/сек
Цветовое пространство : YUV
Субдискретизация насыщенности : 4:2:0
Битовая глубина : 8 бит
Тип развёртки : Прогрессивная
Бит/(Пиксели*Кадры) : 0.129
Размер потока : 3,23 Гбайт (87%)
Заголовок : Release by mimok
Библиотека кодирования : x264 core 125 r2208 d9d2288
Настройки программы : cabac=1 / ref=6 / deblock=1:1:1 / analyse=0x3:0x133 / me=umh / subme=8 / psy=1 / psy_rd=1.00:0.15 / mixed_ref=1 / me_range=20 / chroma_me=1 / trellis=2 / 8x8dct=1 / cqm=0 / deadzone=21,11 / fast_pskip=0 / chroma_qp_offset=-3 / threads=6 / lookahead_threads=1 / sliced_threads=0 / nr=0 / decimate=0 / interlaced=0 / bluray_compat=0 / constrained_intra=0 / bframes=8 / b_pyramid=2 / b_adapt=2 / b_bias=0 / direct=1 / weightb=1 / open_gop=0 / weightp=2 / keyint=600 / keyint_min=59 / scenecut=40 / intra_refresh=0 / rc=crf / mbtree=0 / crf=18.0 / qcomp=0.63 / qpmin=10 / qpmax=51 / qpstep=4 / ip_ratio=1.40 / pb_ratio=1.30 / aq=1:1.20
Default : Да
Forced : Нет
Аудио
Идентификатор : 2
Формат : AC-3
Формат/Информация : Audio Coding 3
Расширение режима : CM (complete main)
Параметр Endianness формата : Big
Идентификатор кодека : A_AC3
Продолжительность : 1 ч. 26 м.
Вид битрейта : Постоянный
Битрейт : 640 Кбит/сек
Каналы : 6 каналов
Расположение каналов : Front: L C R, Side: L R, LFE
Частота : 48,0 КГц
Битовая глубина : 16 бит
Метод сжатия : С потерями
Размер потока : 398 Мбайт (11%)
Заголовок : Dub
Язык : Russian
Default : Да
Forced : Нет

Скринлист

Скриншоты:

[Цитировать]
Fragrance

Оо еще релиз 720 р) Спасибо)

[Цитировать]
mimok

1393Оо еще релиз 720 р) Спасибо)
Я их только и делаю.

[Цитировать]
Kryl

Он другие не умеет ))))

[Цитировать]
Fragrance

1394
1393Оо еще релиз 720 р) Спасибо)
Я их только и делаю.
Спасибо) будем ждать ваши другие работы)).

[Цитировать]
mimok

1397
1394
1393Оо еще релиз 720 р) Спасибо)
Я их только и делаю.
Спасибо) будем ждать ваши другие работы)).
Написано же выше: Он другие не умеет ))))
 
Показать сообщения:    

Текущее время: 05-Дек 05:26

Часовой пояс: UTC + 3


Вы не можете начинать темы
Вы не можете отвечать на сообщения
Вы не можете редактировать свои сообщения
Вы не можете удалять свои сообщения
Вы не можете голосовать в опросах
Вы не можете прикреплять файлы к сообщениям
Вы не можете скачивать файлы