[Цитировать]
Kryl

«The leader. The brains. The attitude. And Mikey»- Информация о фильме
Название: Черепашки-ниндзя
Оригинальное название: Teenage Mutant Ninja Turtles
Год выхода: 2014
Жанр: Фантастика, фэнтези, боевик, комедия, приключения
Режиссер: Джонатан Либесман
Сценарий: Джош Аппелбаум, Андре Немец, Ивэн Догерти
Продюсер: Майкл Бэй, Йен Брайс, Эндрю Форм
В ролях: Меган Фокс, Уилл Арнетт, Уильям Фихтнер, Алан Ричсон, Ноэль Фишер, Пит Пложек, Джонни Ноксвилл, Джереми Ховард, Дэнни Вудберн, Тони Шэлоуб
--О фильме:
Город нуждается в героях. Тьма окутала Нью-Йорк в виде Шреддера и его зловещего Клана Футов, у которого имеется железный контроль над всеми, от полицейских до политиков. Будущее выглядит мрачным, пока из канализации не поднимается и не раскрывает своё предназначение четвёрка отверженных братьев — Черепашки-ниндзя. Черепашки должны работать вместе с бесстрашным репортёром Эйприл и её саркастическим оператором Верном Фенвиком, чтобы спасти город и разгадать дьявольский план Шреддера.- - Страна: США
Продолжительность: 01:41:18
-- Файл
Кодек: MPEG4/ISO/AVC H.264
Формат: MKV
Качество: BDRip-AVC
Видео: 1024x432 (2.35:1) | 59.940 fps | ~5.0 Мбит/сек
Аудио: AC3 | 2.0 | 48 kHz | 448 kbps | 16 bit | Дублированный |
Субтитры: Русские (Форсированные), русские (Полные)

MedifInfo

Video
ID : 2
Format : AVC
Format/Info : Advanced Video Codec
Format profile : High@L4.1
Format settings, CABAC : Yes
Format settings, ReFrames : 10 frames
Codec ID : V_MPEG4/ISO/AVC
Duration : 1h 41mn
Bit rate : 5 025 Kbps
Width : 1 024 pixels
Height : 432 pixels
Display aspect ratio : 2.35:1
Frame rate : 59.940 fps
Color space : YUV
Chroma subsampling : 4:2:0
Bit depth : 8 bits
Scan type : Progressive
Bits/(Pixel*Frame) : 0.190
Stream size : 3.48 GiB (90%)
Writing library : x264 core 146 r2538 121396c
Encoding settings : cabac=1 / ref=10 / deblock=1:0:0 / analyse=0x3:0x113 / me=umh / subme=11 / psy=1 / psy_rd=1.00:0.00 / mixed_ref=1 / me_range=32 / chroma_me=1 / trellis=2 / 8x8dct=1 / cqm=0 / deadzone=21,11 / fast_pskip=1 / chroma_qp_offset=-2 / threads=12 / lookahead_threads=1 / sliced_threads=0 / nr=0 / decimate=1 / interlaced=0 / bluray_compat=0 / constrained_intra=0 / bframes=3 / b_pyramid=2 / b_adapt=2 / b_bias=0 / direct=1 / weightb=1 / open_gop=0 / weightp=2 / keyint=250 / keyint_min=25 / scenecut=40 / intra_refresh=0 / rc_lookahead=40 / rc=2pass / mbtree=1 / bitrate=5025 / ratetol=1.0 / qcomp=0.60 / qpmin=0 / qpmax=69 / qpstep=4 / cplxblur=20.0 / qblur=0.5 / ip_ratio=1.40 / aq=1:1.00
Language : English
Default : Yes
Forced : No
Audio
ID : 1
Format : AC-3
Format/Info : Audio Coding 3
Mode extension : CM (complete main)
Codec ID : A_AC3
Duration : 1h 41mn
Bit rate mode : Constant
Bit rate : 448 Kbps
Channel(s) : 6 channels
Channel positions : Front: L C R, Side: L R, LFE
Sampling rate : 48.0 KHz
Bit depth : 16 bits
Compression mode : Lossy
Stream size : 325 MiB (8%)
Language : Russian
Default : Yes
Forced : No
Text #1
ID : 3
Format : UTF-8
Codec ID : S_TEXT/UTF8
Codec ID/Info : UTF-8 Plain Text
Title : Форсированные
Language : Russian
Default : Yes
Forced : No
Text #2
ID : 4
Format : UTF-8
Codec ID : S_TEXT/UTF8
Codec ID/Info : UTF-8 Plain Text
Title : Полные
Language : Russian
Default : No
Forced : No
Menu
00:00:00.000 : en:Chapter 01
00:02:42.287 : en:Chapter 02
00:06:00.485 : en:Chapter 03
00:11:51.544 : en:Chapter 04
00:16:01.835 : en:Chapter 05
00:22:02.946 : en:Chapter 06
00:28:22.784 : en:Chapter 07
00:34:01.831 : en:Chapter 08
00:38:04.031 : en:Chapter 09
00:42:10.110 : en:Chapter 10
00:48:36.413 : en:Chapter 11
00:55:46.092 : en:Chapter 12
01:00:44.265 : en:Chapter 13
01:07:46.604 : en:Chapter 14
01:15:30.359 : en:Chapter 15
01:24:10.795 : en:Chapter 16
01:30:17.036 : en:Chapter 17
01:34:13.564 : en:Chapter 18

[Цитировать]
mimok

KRYL, опять полуфабрикат? :ag:

[Цитировать]
Kryl

3520KRYL, опять полуфабрикат? :ag:
Ну , да с рутора .. :ag:

[Цитировать]
envy

KRYL, так не выкладывай!

[Цитировать]
Kryl

3523KRYL, так не выкладывай!
:ac: :ac: :ac:
 
Показать сообщения:    

Текущее время: 19-Окт 19:22

Часовой пояс: UTC + 3


Вы не можете начинать темы
Вы не можете отвечать на сообщения
Вы не можете редактировать свои сообщения
Вы не можете удалять свои сообщения
Вы не можете голосовать в опросах
Вы не можете прикреплять файлы к сообщениям
Вы не можете скачивать файлы