Selena Gomez - Slow Down (2013) WEBRip 1080p | 60 fps Michael Jackson - Smooth Criminal (2010) BDRip 1080p | 60 fps Britney Spears - ...Baby One More Time (2009) Full HD 1080p | 60 fps Lady Gaga - Poker Face (2009) Full HD 1080p | 60 fps Sia - Chandelier (2014 ) Full HD 1080p | 60 fps Britney Spears - I Wanna Go (2011) HDCam 1080p | 60 fps Beyonce - Crazy In Love ft. JAY Z (2009) Full HD 1080p | 60 fps ITZY | WEBRip 1080p | 60 fps
  1. Longevity:
    5 years 11 months
    Posts:
    2419
    Gender:
    Male
    -Cher - Woman's World (2013) HD 720p | 60 fps- -Информация
    Исполнитель: Cher
    Название: Woman's World
    Год выхода: 2013
    Продолжительность: 00:04:01-Файл
    Кодек: MPEG4/ISO/AVC/H.264
    Формат: MKV
    Качество: HD 720p | 60 fps
    Видео : 1252 x 720 (1.739) | 60.000 fps 10.0 Мбит/сек
    Аудио : DTS | 1413 kbps | 48.0 KHz | 2.0 ch

    MediaInfo

    Видео
    Идентификатор : 1
    Формат : AVC
    Формат/Информация : Advanced Video Codec
    Профиль формата : High@L4.1
    Параметр CABAC формата : Да
    Параметр ReFrames формата : 3 кадра
    Параметр GOP формата : M=3, N=72
    Идентификатор кодека : V_MPEG4/ISO/AVC
    Продолжительность : 4 м. 1 с.
    Вид битрейта : Переменный
    Битрейт : 9155 Кбит/сек
    Максимальный битрейт : 10000 Кбит/сек
    Ширина : 1252 пикселя
    Высота : 720 пикселей
    Соотношение сторон : 1,739
    Режим частоты кадров : Постоянный
    Частота кадров : 60,000 кадров/сек
    Стандарт вещания : PAL
    Цветовое пространство : YUV
    Субдискретизация насыщенности : 4:2:0
    Битовая глубина : 8 бит
    Тип развёртки : Прогрессивная
    Бит/(Пиксели*Кадры) : 0.169
    Размер потока : 264 Мбайт (85%)
    Заголовок : www.60-fps.org
    Язык : English
    Default : Да
    Forced : Нет
    Основные цвета : BT.709
    Характеристики трансфера : BT.709
    Коэффициенты матрицы : BT.709
    colour_range : Limited
    Аудио
    Идентификатор : 2
    Формат : DTS
    Формат/Информация : Digital Theater Systems
    Режим : 16
    Параметр Endianness формата : Big
    Идентификатор кодека : A_DTS
    Продолжительность : 4 м. 1 с.
    Вид битрейта : Постоянный
    Битрейт : 1413 Кбит/сек
    Каналы : 2 канала
    Расположение каналов : Front: L R
    Частота : 48,0 КГц
    Битовая глубина : 16 бит
    Метод сжатия : С потерями
    Задержка видео : 200 мс.
    Размер потока : 40,7 Мбайт (13%)
    Язык : English
    Default : Нет
    Forced : Нет
    DURATION : 00:04:01.685000000
    NUMBER_OF_FRAMES : 22658
    NUMBER_OF_BYTES : 42687672
    _STATISTICS_WRITING_APP : mkvmerge v7.6.0 ('Garden of Dreams') 32bit built on Feb 8 2015 12:51:39
    _STATISTICS_WRITING_DATE_UTC : 2016-12-10 10:59:27
    _STATISTICS_TAGS : BPS DURATION NUMBER_OF_FRAMES NUMBER_OF_BYTES

    Release was prepared by 60 - fps



You cannot post new topics in this forum
You cannot reply to topics in this forum
You cannot edit your posts in this forum
You cannot delete your posts in this forum
You cannot vote in polls in this forum
You cannot attach files in this forum
You cannot download files in this forum