[Цитировать]
Kryl

«Homework can wait. The city can't» Информация
Название: Человек-паук: Возвращение домой
Оригинальное название: Spider-Man: Homecoming
Год выхода: 2017
Жанр: Фантастика, боевик, приключения
Режиссер: Джон Уоттс
Сценарий: Джонатан М. Голдштейн, Джон Фрэнсис Дейли, Джон Уоттс
Продюсер: Виктория Алонсо, Ави Арад, Митчелл Белл
В ролях: Том Холланд (II), Роберт Дауни мл., Майкл Китон, Мариса Томей, Джон Фавро, Джейкоб Баталон, Зендея, Лора Хэрриер, Тони Револори, Дональд Гловер

Сюжет:
После исторической встречи с командой Мстителей Питер Паркер возвращается домой, стараясь зажить обычной жизнью под опекой своей тёти Мэй. Но теперь за Питером приглядывает ещё кое-что… Тони Старк видел Человека-Паука в деле и должен стать его наставником. Когда новый злодей Стервятник угрожает уничтожить всё, что дорого Питеру, приходит время доказать всем, что такое настоящий супергерой.

Страна: США
Продолжительность: 02:13:28

Файл
Кодек: MPEG4/ISO/AVC/H.264/High@L4.1
Формат: MKV
Качество: BDRip 720p | 60 fps
Видео: 1280 x 532 (2.406) | 59.940 fps | 10.0 Мбит/сек
Аудио 01: AC3 | 5.1 | 48 kHz | 384 kbps | 16 bit | Дубляж - iTunes |
Аудио 02: AC3 | 5.1 | 48 kHz | 448 kbps | 16 bit | English |
Субтитры: Русские (полные + форс.), английские (Full + SDH + SDH-Colored)

MedifInfo

Видео
Идентификатор : 1
Формат : AVC
Формат/Информация : Advanced Video Codec
Профиль формата : High@L4.1
Параметр CABAC формата : Да
Параметр ReFrames формата : 3 кадра
Параметр GOP формата : M=3, N=72
Идентификатор кодека : V_MPEG4/ISO/AVC
Продолжительность : 2 ч. 13 м.
Вид битрейта : Переменный
Битрейт : 9670 Кбит/сек
Максимальный битрейт : 10000 Кбит/сек
Ширина : 1280 пикселей
Высота : 532 пикселя
Соотношение сторон : 2,40:1
Режим частоты кадров : Постоянный
Частота кадров : 59,880 кадров/сек
Частота кадров в оригинале : 59,940 кадров/сек
Стандарт вещания : PAL
Цветовое пространство : YUV
Субдискретизация насыщенности : 4:2:0
Битовая глубина : 8 бит
Тип развёртки : Прогрессивная
Бит/(Пиксели*Кадры) : 0.237
Размер потока : 9,02 Гбайт (90%)
Заголовок : www.60-fps.org
Язык : English
Default : Да
Forced : Нет
Основные цвета : BT.601 NTSC
Характеристики трансфера : BT.601
Коэффициенты матрицы : BT.601
colour_range : Limited
Аудио #1
Идентификатор : 2
Формат : AC-3
Формат/Информация : Audio Coding 3
Расширение режима : CM (complete main)
Параметр Endianness формата : Big
Идентификатор кодека : A_AC3
Продолжительность : 2 ч. 13 м.
Вид битрейта : Постоянный
Битрейт : 384 Кбит/сек
Каналы : 6 каналов
Расположение каналов : Front: L C R, Side: L R, LFE
Частота : 48,0 КГц
Битовая глубина : 16 бит
Метод сжатия : С потерями
Размер потока : 367 Мбайт (4%)
Заголовок : Дубляж - iTunes
Язык : Russian
Default : Да
Forced : Нет
Аудио #2
Идентификатор : 3
Формат : AC-3
Формат/Информация : Audio Coding 3
Расширение режима : CM (complete main)
Параметр Endianness формата : Big
Идентификатор кодека : A_AC3
Продолжительность : 2 ч. 13 м.
Вид битрейта : Постоянный
Битрейт : 448 Кбит/сек
Каналы : 6 каналов
Расположение каналов : Front: L C R, Side: L R, LFE
Частота : 48,0 КГц
Битовая глубина : 16 бит
Метод сжатия : С потерями
Размер потока : 428 Мбайт (4%)
Заголовок : English
Язык : English
Default : Нет
Forced : Нет
Текст #1
Идентификатор : 4
Формат : UTF-8
Идентификатор кодека : S_TEXT/UTF8
Идентификатор кодека/Информация : UTF-8 Plain Text
Заголовок : Forced
Язык : Russian
Default : Да
Forced : Нет
Текст #2
Идентификатор : 5
Формат : UTF-8
Идентификатор кодека : S_TEXT/UTF8
Идентификатор кодека/Информация : UTF-8 Plain Text
Заголовок : iTunes
Язык : Russian
Default : Нет
Forced : Нет
Текст #3
Идентификатор : 6
Формат : UTF-8
Идентификатор кодека : S_TEXT/UTF8
Идентификатор кодека/Информация : UTF-8 Plain Text
Заголовок : Full
Язык : English
Default : Нет
Forced : Нет
Текст #4
Идентификатор : 7
Формат : UTF-8
Идентификатор кодека : S_TEXT/UTF8
Идентификатор кодека/Информация : UTF-8 Plain Text
Заголовок : SDH
Язык : English
Default : Нет
Forced : Нет
Текст #5
Идентификатор : 8
Формат : UTF-8
Идентификатор кодека : S_TEXT/UTF8
Идентификатор кодека/Информация : UTF-8 Plain Text
Заголовок : SDH-Colored
Язык : English
Default : Нет
Forced : Нет
Меню
00:00:00.000 : en:Chapter 1
00:00:48.798 : en:Chapter 2
00:01:28.046 : en:Chapter 3
00:02:03.164 : en:Chapter 4
00:02:26.646 : en:Chapter 5
00:05:35.001 : en:Chapter 6
00:06:03.446 : en:Chapter 7
00:06:29.305 : en:Chapter 8
00:08:58.120 : en:Chapter 9
00:10:57.698 : en:Chapter 10
00:12:25.870 : en:Chapter 11
00:13:49.119 : en:Chapter 12
00:17:48.108 : en:Chapter 13
00:20:50.749 : en:Chapter 14
00:21:22.072 : en:Chapter 15
00:22:00.986 : en:Chapter 16
00:24:23.587 : en:Chapter 17
00:25:52.133 : en:Chapter 18
00:26:44.519 : en:Chapter 19
00:28:12.941 : en:Chapter 20
00:29:11.708 : en:Chapter 21
00:32:25.276 : en:Chapter 22
00:33:03.231 : en:Chapter 23
00:34:14.343 : en:Chapter 24
00:34:35.198 : en:Chapter 25
00:37:10.895 : en:Chapter 26
00:38:13.833 : en:Chapter 27
00:40:53.242 : en:Chapter 28
00:41:52.218 : en:Chapter 29
00:45:03.033 : en:Chapter 30
00:46:25.324 : en:Chapter 31
00:48:24.484 : en:Chapter 32
00:51:06.313 : en:Chapter 33
00:52:41.366 : en:Chapter 34
00:55:30.285 : en:Chapter 35
00:58:41.559 : en:Chapter 36
00:59:33.611 : en:Chapter 37
01:00:02.390 : en:Chapter 38
01:00:15.445 : en:Chapter 39
01:00:29.792 : en:Chapter 40
01:00:56.235 : en:Chapter 41
01:01:19.342 : en:Chapter 42
01:03:25.551 : en:Chapter 43
01:05:08.279 : en:Chapter 44
01:06:21.978 : en:Chapter 45
01:06:47.086 : en:Chapter 46
01:07:23.289 : en:Chapter 47
01:10:11.040 : en:Chapter 48
01:11:20.776 : en:Chapter 49
01:12:53.285 : en:Chapter 50
01:14:51.987 : en:Chapter 51
01:15:45.832 : en:Chapter 52
01:16:56.320 : en:Chapter 53
01:18:42.092 : en:Chapter 54
01:19:12.247 : en:Chapter 55
01:20:22.234 : en:Chapter 56
01:21:00.730 : en:Chapter 57
01:23:33.758 : en:Chapter 58
01:27:21.319 : en:Chapter 59
01:28:49.949 : en:Chapter 60
01:32:38.219 : en:Chapter 61
01:33:23.723 : en:Chapter 62
01:34:00.092 : en:Chapter 63
01:35:21.006 : en:Chapter 64
01:36:48.886 : en:Chapter 65
01:38:46.295 : en:Chapter 66
01:40:48.000 : en:Chapter 67
01:42:08.122 : en:Chapter 68
01:43:39.838 : en:Chapter 69
01:45:07.050 : en:Chapter 70
01:46:23.835 : en:Chapter 71
01:47:19.182 : en:Chapter 72
01:48:07.522 : en:Chapter 73
01:49:07.207 : en:Chapter 74
01:50:14.733 : en:Chapter 75
01:52:24.654 : en:Chapter 76
01:54:01.251 : en:Chapter 77
01:56:02.038 : en:Chapter 78
01:58:04.077 : en:Chapter 79
01:59:28.870 : en:Chapter 80
02:00:14.624 : en:Chapter 81
02:01:11.973 : en:Chapter 82
02:02:21.917 : en:Chapter 83

Релиз подготовлен 60 - fps

 
Показать сообщения:    

Текущее время: 18-Окт 14:02

Часовой пояс: UTC + 3


Вы не можете начинать темы
Вы не можете отвечать на сообщения
Вы не можете редактировать свои сообщения
Вы не можете удалять свои сообщения
Вы не можете голосовать в опросах
Вы не можете прикреплять файлы к сообщениям
Вы не можете скачивать файлы