Leah Gotti-Wet Wild And Hot (2017) Full HD 1080p | 60 fps Feeling Every Drop (2018) Ultra HD | 60 fps Club VXN (2018) Full HD 1080p | 60 fps A Rose, A Kiss, and A Bang! (2017) Full HD 1080p | 60 fps Three students learn to fuck together (2017) Full HD 1080p | 60 fps HOT BLACK GIRLS CREAMPIED(2017) Full HD 1080p | 60 fps Sheri Vi Tantalizes Nikolas With Her Oral Skills (2015) HD 1080p | 60 fps BIG ASS CHICKS IN ACTION (2017) Full HD 1080p | 60 fps
  1. Стаж:
    2 года
    Сообщений:
    580
    Пол:
    Мужской
    Информация
    Название: CHASTITY LANE AND LILY LOVE LIKE LESBIAN SEX
    Год выхода: 2017
    Жанр: Lesbian Blonde Brunette
    В ролях: CHASTITY LANE,LILY LOVE
    --Сюжет:
    Blonde Lesbian Sexy Lingerie Stockings Pornstar,Chastity Lane Lily Love Lesbians Sex Brunette Hq Porn Like
    Страна: США
    Продолжительность: 00:13:02

    Файл
    Кодек: MPEG4/ISO/AVC High@L4.1
    Формат: MP4
    Качество: Full HD 1080p 60 fps
    Видео: 1920 x 1080 (1.778) | 60.000 fps | 5000 Кбит/сек
    Аудио: AAC | 2.0 | 48 kHz |192 Кбит/сек | 16 bit | ENG |

    MedifInfo

    Видео
    Идентификатор : 1
    Формат : AVC
    Формат/Информация : Advanced Video Codec
    Профиль формата : High@L4.1
    Параметр CABAC формата : Да
    Параметр ReFrames формата : 4 кадра
    Идентификатор кодека : avc1
    Идентификатор кодека/Информация : Advanced Video Coding
    Продолжительность : 13 м. 2 с.
    Битрейт : 5000 Кбит/сек
    Ширина : 1920 пикселей
    Высота : 1080 пикселей
    Соотношение сторон : 16:9
    Режим частоты кадров : Постоянный
    Частота кадров : 60,000 кадров/сек
    Цветовое пространство : YUV
    Субдискретизация насыщенности : 4:2:0
    Битовая глубина : 8 бит
    Тип развёртки : Прогрессивная
    Бит/(Пиксели*Кадры) : 0.040
    Размер потока : 461 Мбайт (97%)
    Библиотека кодирования : x264 core 148 r209 7599210
    Настройки программы : cabac=1 / ref=4 / deblock=1:-1:-1 / analyse=0x3:0x133 / me=umh / subme=9 / psy=1 / psy_rd=1.00:0.15 / mixed_ref=1 / me_range=16 / chroma_me=1 / trellis=2 / 8x8dct=1 / cqm=0 / deadzone=21,11 / fast_pskip=1 / chroma_qp_offset=-3 / threads=4 / lookahead_threads=1 / sliced_threads=0 / nr=0 / decimate=1 / interlaced=0 / bluray_compat=0 / constrained_intra=0 / bframes=3 / b_pyramid=2 / b_adapt=2 / b_bias=0 / direct=3 / weightb=1 / open_gop=0 / weightp=2 / keyint=250 / keyint_min=25 / scenecut=0 / intra_refresh=0 / rc_lookahead=60 / rc=abr / mbtree=1 / bitrate=5000 / ratetol=1.0 / qcomp=0.60 / qpmin=0 / qpmax=69 / qpstep=4 / ip_ratio=1.40 / aq=1:1.00
    Аудио
    Идентификатор : 2
    Формат : AAC
    Формат/Информация : Advanced Audio Codec
    Профиль формата : LC
    Идентификатор кодека : 40
    Продолжительность : 13 м. 2 с.
    Duration_LastFrame : -15 мс.
    Вид битрейта : Постоянный
    Битрейт : 144 Кбит/сек
    Каналы : 2 канала
    Расположение каналов : Front: L R
    Частота : 44,1 КГц
    Частота кадров : 43,066 кадра/сек (1024 spf)
    Метод сжатия : С потерями
    Размер потока : 13,2 Мбайт (3%)
    Default : Да
    Alternate group : 1

    Скрин



Вы не можете начинать темы
Вы не можете отвечать на сообщения
Вы не можете редактировать свои сообщения
Вы не можете удалять свои сообщения
Вы не можете голосовать в опросах
Вы не можете прикреплять файлы к сообщениям
Вы не можете скачивать файлы