1. Longevity:
    6 years 11 months
    Posts:
    2413
    Gender:
    Male

    Час Пик

    -Название: Час пик
    Оригинальное название: Rush Hour
    Год выпуска: 1998
    Страна: США
    Продолжительность: 01:37:51-Режиссер: Бретт Рэтнер / Brett Ratner-В ролях: Джеки Чан (Lee), Крис Такер (Carter), Элизабет Пенья (Johnson), Том Уилкинсон (Griffin), Кен Люн (Sang), Ци Ма (Consul Han), Марк Ролстон (Agent Warren Russ), Крис Пенн (Clive), Рекс Линн (Agent Dan Whitney), Филип Бейкер Холл (Captain Diel), Янг Лин (Consul Secretary), Джон Хоукс (Stucky)-Описание:
    В Лос-Анджелесе злодеи похищают малолетнюю дочь китайского консула, которую в Гонконге учил кунг-фу инспектор Ли. Консул вызывает Ли в Америку, чтобы тот принял участие в освобождении девочки.
    Агенты ФБР обратились к полиции с просьбой выделить им самого никчемного сотрудника, чтобы тот взял китайца на себя и показал ему достопримечательности, а главное, не позволил вмешиваться в их дела.
    Им оказывается самый болтливый полицейский Картер. Естественно, после ряда разногласий и недоразумений они объединяют усилия и всерьез берутся за вызволение заложницы.-Рейтинг

    imdb.com: 6.90 (174 142)
    MPAA: PG-13 - Детям до 13 лет просмотр не желателен-Качество: BDRip 1080p / 60 fps
    Формат: MKV
    Видео: AVC, 1920x1080 (16:9), 25 000 kbps, 59,940 fps
    Аудио: Русский / AC3 / 5.1 / 48 kHz / 448 kbps / 16 bit
    Аудио: English / DTS / 5.1 / 48 kHz / 5363 kbps / 24 bit

    MI

    Общее
    Уникальный идентификатор : 271685338855468937627745169301551897225 (0xCC64B165844FAFC62F1EEB969A12DA89)
    Полное имя : D:\Movie\Час пик\Час пик 1 (1998).mkv
    Формат : Matroska
    Версия формата : Version 4 / Version 2
    Размер файла : 21,0 Гбайт
    Продолжительность : 1 ч. 37 м.
    Общий поток : 30,8 Мбит/сек
    Название фильма : Час пик / Rush Hour (1998)
    Дата кодирования : UTC 2021-04-08 21:09:35
    Программа кодирования : mkvmerge v22.0.0 ('At The End Of The World') 64-bit
    Библиотека кодирования : libebml v1.3.5 + libmatroska v1.4.8
    Видео
    Идентификатор : 1
    Формат : AVC
    Формат/Информация : Advanced Video Codec
    Профиль формата : [email protected]
    Параметр CABAC формата : Да
    Параметр ReFrames формата : 4 кадра
    Идентификатор кодека : V_MPEG4/ISO/AVC
    Продолжительность : 1 ч. 37 м.
    Битрейт : 25,0 Мбит/сек
    Ширина : 1920 пикселей
    Высота : 1080 пикселей
    Соотношение сторон : 16:9
    Режим частоты кадров : Постоянный
    Частота кадров : 59,940 (60000/1001) кадров/сек
    Цветовое пространство : YUV
    Субдискретизация насыщенности : 4:2:0
    Битовая глубина : 8 бит
    Тип развёртки : Прогрессивная
    Бит/(Пиксели*Кадры) : 0.201
    Размер потока : 17,1 Гбайт (81%)
    Заголовок : Час пик (Талямба)
    Библиотека кодирования : x264 core 146 r2538 121396c
    Настройки программы : cabac=1 / ref=3 / deblock=1:0:0 / analyse=0x3:0x113 / me=hex / subme=7 / psy=1 / psy_rd=1.00:0.25 / mixed_ref=1 / me_range=16 / chroma_me=1 / trellis=1 / 8x8dct=1 / cqm=0 / deadzone=6,6 / fast_pskip=1 / chroma_qp_offset=-4 / threads=36 / lookahead_threads=6 / sliced_threads=0 / nr=0 / decimate=0 / interlaced=0 / bluray_compat=0 / constrained_intra=0 / bframes=3 / b_pyramid=2 / b_adapt=1 / b_bias=0 / direct=1 / weightb=1 / open_gop=0 / weightp=2 / keyint=599 / keyint_min=59 / scenecut=40 / intra_refresh=0 / rc_lookahead=40 / rc=2pass / mbtree=1 / bitrate=25000 / ratetol=1.0 / qcomp=0.80 / qpmin=0 / qpmax=69 / qpstep=4 / cplxblur=20.0 / qblur=0.5 / vbv_maxrate=50000 / vbv_bufsize=50000 / nal_hrd=none / filler=0 / ip_ratio=1.10 / aq=1:0.50
    Язык : English
    Default : Да
    Forced : Нет
    Аудио #1
    Идентификатор : 2
    Формат : AC-3
    Формат/Информация : Audio Coding 3
    Расширение режима : CM (complete main)
    Параметр Endianness формата : Big
    Идентификатор кодека : A_AC3
    Продолжительность : 1 ч. 37 м.
    Вид битрейта : Постоянный
    Битрейт : 448 Кбит/сек
    Каналы : 6 каналов
    Расположение каналов : Front: L C R, Side: L R, LFE
    Частота : 48,0 КГц
    Частота кадров : 31,250 кадров/сек (1536 spf)
    Битовая глубина : 16 бит
    Метод сжатия : С потерями
    Размер потока : 313 Мбайт (1%)
    Заголовок : Дубляж
    Язык : Russian
    Default : Да
    Forced : Нет
    Аудио #2
    Идентификатор : 3
    Формат : DTS
    Формат/Информация : Digital Theater Systems
    Профиль формата : MA / ES Matrix / Core
    Режим : 16
    Параметр Endianness формата : Big
    Идентификатор кодека : A_DTS
    Продолжительность : 1 ч. 37 м.
    Вид битрейта : Переменный / Постоянный / Постоянный
    Битрейт : 5363 Кбит/сек / 1509 Кбит/сек / 1509 Кбит/сек
    Каналы : 8 каналов / 7 каналов / 6 каналов
    Расположение каналов : Front: L C R, Side: L R, Back: L R, LFE / Front: L C R, Side: L R, Back: C, LFE / Front: L C R, Side: L R, LFE
    Частота : 48,0 КГц
    Частота кадров : 93,750 кадра/сек (512 spf)
    Битовая глубина : 24 бит
    Метод сжатия : Без потерь / Lossy / Lossy
    Размер потока : 3,67 Гбайт (17%)
    Заголовок : Оригинал
    Язык : English
    Default : Нет
    Forced : Нет

    Час Пик 2

    -Название: Час пик 2
    Оригинальное название: Rush Hour 2
    Год выпуска: 2001
    Страна: США, Гонконг
    Жанр: Боевик, триллер, комедия, криминал, детектив
    Продолжительность: 01:30:08
    Субтитры: Русские, Английские-Режиссер: Бретт Рэтнер / Brett Ratner-В ролях: Джеки Чан (Lee), Крис Такер (Carter), Джон Лоун (Ricky Tan), Чжан Цзыи (Hu Li), Роселин Санчес (Isabella Molina), Алан Кинг (Steven Reign), Харрис Юлин (Agent Sterling), Кеннет Цан (Captain Chin), Лиза ЛоЦицеро (Receptionist), Мей Меланкон (Girl in Car), Мэгги Кью (Girl in Car), Патриция Чан (Club Hostess)-Описание:
    История начинается непосредственно с того момента, на котором закончилась первая часть - полицейские Ли и Картер прибывают в Гонконг по следам преступников, замышляющих похищение китайский сокровищ и продажи их в штатах.
    По мере того, как детективы Картер и Ли становятся все больше и больше запутанными в преступном заговоре, вовлекающем их в смертоносную Триаду, поездка в стиле нон-стоп от Гонконга до Лос-Анджелеса и Лас-Вегаса, оборачивается для них безумно интересным, смешным и в то же время опасным приключением.
    Полицейские должны использовать все свои навыки, чтобы заманить в ловушку одного из самых опасных преступников в мире...-Рейтинг

    imdb.com: 6.60 (150 277)
    MPAA: PG-13 - Детям до 13 лет просмотр не желателен-Качество: BDRip 1080p / 60 fps
    Формат: MKV
    Видео: AVC, 1920x1080 (16:9), 25 000 kbps, 59,940 fps
    Аудио: Русский / AC3 / 5.1 / 48 kHz / 448 kbps / 16 bit
    Аудио: English / DTS / 5.1 / 48 kHz / 2171 kbps / 24 bit

    MI

    Общее
    Уникальный идентификатор : 241737219649389708334959527421480091310 (0xB5DCE51EB10FFA14C7F5BF77C9893EAE)
    Полное имя : D:\Movie\Час пик\Час пик 2 (2001).mkv
    Формат : Matroska
    Версия формата : Version 4 / Version 2
    Размер файла : 17,4 Гбайт
    Продолжительность : 1 ч. 30 м.
    Общий поток : 27,6 Мбит/сек
    Название фильма : Час пик 2 / Rush Hour 2 (2001)
    Дата кодирования : UTC 2021-04-08 21:15:02
    Программа кодирования : mkvmerge v22.0.0 ('At The End Of The World') 64-bit
    Библиотека кодирования : libebml v1.3.5 + libmatroska v1.4.8
    Видео
    Идентификатор : 1
    Формат : AVC
    Формат/Информация : Advanced Video Codec
    Профиль формата : [email protected]
    Параметр CABAC формата : Да
    Параметр ReFrames формата : 4 кадра
    Идентификатор кодека : V_MPEG4/ISO/AVC
    Продолжительность : 1 ч. 30 м.
    Битрейт : 25,0 Мбит/сек
    Ширина : 1920 пикселей
    Высота : 1080 пикселей
    Соотношение сторон : 16:9
    Режим частоты кадров : Постоянный
    Частота кадров : 59,940 (60000/1001) кадров/сек
    Цветовое пространство : YUV
    Субдискретизация насыщенности : 4:2:0
    Битовая глубина : 8 бит
    Тип развёртки : Прогрессивная
    Бит/(Пиксели*Кадры) : 0.201
    Размер потока : 15,7 Гбайт (90%)
    Заголовок : Час пик 2 (Талямба)
    Библиотека кодирования : x264 core 146 r2538 121396c
    Настройки программы : cabac=1 / ref=3 / deblock=1:0:0 / analyse=0x3:0x113 / me=hex / subme=7 / psy=1 / psy_rd=1.00:0.25 / mixed_ref=1 / me_range=16 / chroma_me=1 / trellis=1 / 8x8dct=1 / cqm=0 / deadzone=6,6 / fast_pskip=1 / chroma_qp_offset=-4 / threads=36 / lookahead_threads=6 / sliced_threads=0 / nr=0 / decimate=0 / interlaced=0 / bluray_compat=0 / constrained_intra=0 / bframes=3 / b_pyramid=2 / b_adapt=1 / b_bias=0 / direct=1 / weightb=1 / open_gop=0 / weightp=2 / keyint=599 / keyint_min=59 / scenecut=40 / intra_refresh=0 / rc_lookahead=40 / rc=2pass / mbtree=1 / bitrate=25000 / ratetol=1.0 / qcomp=0.80 / qpmin=0 / qpmax=69 / qpstep=4 / cplxblur=20.0 / qblur=0.5 / vbv_maxrate=50000 / vbv_bufsize=50000 / nal_hrd=none / filler=0 / ip_ratio=1.10 / aq=1:0.50
    Язык : English
    Default : Да
    Forced : Нет
    Аудио #1
    Идентификатор : 2
    Формат : AC-3
    Формат/Информация : Audio Coding 3
    Расширение режима : CM (complete main)
    Параметр Endianness формата : Big
    Идентификатор кодека : A_AC3
    Продолжительность : 1 ч. 30 м.
    Вид битрейта : Постоянный
    Битрейт : 448 Кбит/сек
    Каналы : 6 каналов
    Расположение каналов : Front: L C R, Side: L R, LFE
    Частота : 48,0 КГц
    Частота кадров : 31,250 кадров/сек (1536 spf)
    Битовая глубина : 16 бит
    Метод сжатия : С потерями
    Размер потока : 289 Мбайт (2%)
    Заголовок : Дубляж
    Язык : Russian
    Default : Да
    Forced : Нет
    Аудио #2
    Идентификатор : 3
    Формат : DTS
    Формат/Информация : Digital Theater Systems
    Профиль формата : MA / Core
    Режим : 16
    Параметр Endianness формата : Big
    Идентификатор кодека : A_DTS
    Продолжительность : 1 ч. 30 м.
    Вид битрейта : Переменный / Постоянный
    Битрейт : 2171 Кбит/сек / 1509 Кбит/сек
    Каналы : 6 каналов
    Расположение каналов : Front: L C R, Side: L R, LFE
    Частота : 48,0 КГц
    Частота кадров : 93,750 кадра/сек (512 spf)
    Битовая глубина : 24 бит
    Метод сжатия : Без потерь / Lossy
    Размер потока : 1,37 Гбайт (8%)
    Заголовок : Оригинал
    Язык : English
    Default : Нет
    Forced : Нет
    Текст #1
    Идентификатор : 4
    Формат : PGS
    Режим смешивания : zlib
    Идентификатор кодека : S_HDMV/PGS
    Идентификатор кодека/Информация : Picture based subtitle format used on BDs/HD-DVDs
    Продолжительность : 1 ч. 26 м.
    Битрейт : 28,9 Кбит/сек
    Count of elements : 2202
    Размер потока : 17,8 Мбайт (0%)
    Язык : Russian
    Default : Да
    Forced : Нет
    Текст #2
    Идентификатор : 5
    Формат : PGS
    Режим смешивания : zlib
    Идентификатор кодека : S_HDMV/PGS
    Идентификатор кодека/Информация : Picture based subtitle format used on BDs/HD-DVDs
    Продолжительность : 1 ч. 29 м.
    Битрейт : 38,6 Кбит/сек
    Count of elements : 2851
    Размер потока : 24,6 Мбайт (0%)
    Язык : English
    Default : Нет
    Forced : Нет

    Час Пик 3

    -Название: Час пик 3
    Оригинальное название: Rush Hour 3
    Год выпуска: 2007
    Страна: США, Германия
    Жанр: Боевик, триллер, комедия, криминал
    Продолжительность: 01:30:47
    Субтитры: Русские, украинские, английские-Режиссер: Бретт Рэтнер / Brett Ratner-В ролях: Крис Такер (Carter), Джеки Чан (Lee), Макс фон Сюдов (Reynard), Хироюки Санада (Kenji), Иван Атталь (George), Юки Кудо (Dragon Lady), Ноэми Ленуар (Genevieve), Чжан Цзинчу (Soo Yung), Ци Ма (Ambassador Han), Дэна Айви (Sister Agnes), Генри О (Master Yu), Миа Тайлер (Marsha)-Описание:
    Лос-анджелесского полицейского Джеймса Картера, допустившего грубую ошибку при аресте подозреваемого, переводят на гораздо менее престижную должность в дорожной полиции. Тем временем гонконгский полицейский инспектор Ли получает спецзадание: он должен охранять китайского посла Хана, который направляется в Лос-Анджелес, чтобы произнести там речь на саммите Всемирного уголовного суда.
    Хан намеревается разоблачить интриги китайской Триады - самого опасного криминального синдиката в мире - и вывести на чистую воду преступных боссов. Представители Триады, разумеется, не дремлют. Они отправляют в Лос-Анджелес наемного убийцу, которому удается ранить посла в тот самый момент, когда он начинает произносить свою разоблачительную речь. Ли бросается вдогонку за преступником. Тем временем Картер, услышав по полицейскому радио сообщение о покушении на посла, мчится на место преступления... и, естественно, только путается под ногами у Ли.-Рейтинг

    imdb.com: 6.20 (113 044)
    MPAA: PG-13 - Детям до 13 лет просмотр не желателен-Качество: BDRip 1080p / 60 fps
    Формат: MKV
    Видео: AVC, 1920x800 (2.40:1), 18 500 kbps, 59,940 fps
    Аудио: Русский / AC3 / 5.1 / 48 kHz / 448 kbps / 16 bit
    Аудио: English / DTS / 5.1 / 48 kHz / 5234 kbps / 24 bit-

    MI

    Общее
    Уникальный идентификатор : 277349990007307875889735769793361315409 (0xD0A7AA42E21D0889A434EF62B3E78651)
    Полное имя : D:\Movie\Час пик\Час пик 3 (2007).mkv
    Формат : Matroska
    Версия формата : Version 4 / Version 2
    Размер файла : 15,3 Гбайт
    Продолжительность : 1 ч. 30 м.
    Общий поток : 24,2 Мбит/сек
    Название фильма : Час пик 3 / Rush Hour 3 (2007)
    Дата кодирования : UTC 2021-04-08 20:29:55
    Программа кодирования : mkvmerge v22.0.0 ('At The End Of The World') 64-bit
    Библиотека кодирования : libebml v1.3.5 + libmatroska v1.4.8
    Видео
    Идентификатор : 1
    Формат : AVC
    Формат/Информация : Advanced Video Codec
    Профиль формата : [email protected]
    Параметр CABAC формата : Да
    Параметр ReFrames формата : 4 кадра
    Параметр GOP формата : M=1, N=5
    Идентификатор кодека : V_MPEG4/ISO/AVC
    Продолжительность : 1 ч. 30 м.
    Битрейт : 18,5 Мбит/сек
    Ширина : 1920 пикселей
    Высота : 800 пикселей
    Соотношение сторон : 2,40:1
    Режим частоты кадров : Постоянный
    Частота кадров : 59,940 (60000/1001) кадров/сек
    Цветовое пространство : YUV
    Субдискретизация насыщенности : 4:2:0
    Битовая глубина : 8 бит
    Тип развёртки : Прогрессивная
    Бит/(Пиксели*Кадры) : 0.201
    Размер потока : 11,7 Гбайт (76%)
    Заголовок : Час пик 3 (Талямба)
    Библиотека кодирования : x264 core 146 r2538 121396c
    Настройки программы : cabac=1 / ref=3 / deblock=1:0:0 / analyse=0x3:0x113 / me=hex / subme=7 / psy=1 / psy_rd=1.00:0.25 / mixed_ref=1 / me_range=16 / chroma_me=1 / trellis=1 / 8x8dct=1 / cqm=0 / deadzone=6,6 / fast_pskip=1 / chroma_qp_offset=-4 / threads=36 / lookahead_threads=6 / sliced_threads=0 / nr=0 / decimate=0 / interlaced=0 / bluray_compat=0 / constrained_intra=0 / bframes=3 / b_pyramid=2 / b_adapt=1 / b_bias=0 / direct=1 / weightb=1 / open_gop=0 / weightp=2 / keyint=599 / keyint_min=59 / scenecut=40 / intra_refresh=0 / rc_lookahead=40 / rc=2pass / mbtree=1 / bitrate=18500 / ratetol=1.0 / qcomp=0.80 / qpmin=0 / qpmax=69 / qpstep=4 / cplxblur=20.0 / qblur=0.5 / vbv_maxrate=50000 / vbv_bufsize=50000 / nal_hrd=none / filler=0 / ip_ratio=1.10 / aq=1:0.50
    Язык : English
    Default : Да
    Forced : Нет
    Аудио #1
    Идентификатор : 2
    Формат : AC-3
    Формат/Информация : Audio Coding 3
    Расширение режима : CM (complete main)
    Параметр Endianness формата : Big
    Идентификатор кодека : A_AC3
    Продолжительность : 1 ч. 30 м.
    Вид битрейта : Постоянный
    Битрейт : 448 Кбит/сек
    Каналы : 6 каналов
    Расположение каналов : Front: L C R, Side: L R, LFE
    Частота : 48,0 КГц
    Частота кадров : 31,250 кадров/сек (1536 spf)
    Битовая глубина : 16 бит
    Метод сжатия : С потерями
    Размер потока : 291 Мбайт (2%)
    Заголовок : Дубляж
    Язык : Russian
    Default : Да
    Forced : Нет
    Аудио #2
    Идентификатор : 3
    Формат : DTS
    Формат/Информация : Digital Theater Systems
    Профиль формата : MA / Core
    Режим : 16
    Параметр Endianness формата : Big
    Идентификатор кодека : A_DTS
    Продолжительность : 1 ч. 30 м.
    Вид битрейта : Переменный / Постоянный
    Битрейт : 5234 Кбит/сек / 1509 Кбит/сек
    Каналы : 8 каналов / 6 каналов
    Расположение каналов : Front: L C R, Side: L R, Wide: L R, LFE / Front: L C R, Side: L R, LFE
    Частота : 48,0 КГц
    Частота кадров : 93,750 кадра/сек (512 spf)
    Битовая глубина : 24 бит
    Метод сжатия : Без потерь / Lossy
    Размер потока : 3,32 Гбайт (22%)
    Заголовок : Ориинал
    Язык : English
    Default : Нет
    Forced : Нет
    Текст #1
    Идентификатор : 4
    Формат : UTF-8
    Идентификатор кодека : S_TEXT/UTF8
    Идентификатор кодека/Информация : UTF-8 Plain Text
    Продолжительность : 1 ч. 3 м.
    Битрейт : 2 бит/сек
    Count of elements : 19
    Размер потока : 1,19 Кбайт (0%)
    Заголовок : Forced
    Язык : Russian
    Default : Да
    Forced : Нет
    Текст #2
    Идентификатор : 5
    Формат : UTF-8
    Идентификатор кодека : S_TEXT/UTF8
    Идентификатор кодека/Информация : UTF-8 Plain Text
    Продолжительность : 1 ч. 23 м.
    Битрейт : 103 бит/сек
    Count of elements : 1220
    Размер потока : 63,6 Кбайт (0%)
    Язык : Russian
    Default : Нет
    Forced : Нет
    Текст #3
    Идентификатор : 6
    Формат : UTF-8
    Идентификатор кодека : S_TEXT/UTF8
    Идентификатор кодека/Информация : UTF-8 Plain Text
    Продолжительность : 1 ч. 23 м.
    Битрейт : 98 бит/сек
    Count of elements : 1357
    Размер потока : 60,6 Кбайт (0%)
    Язык : Ukrainian
    Default : Нет
    Forced : Нет
    Текст #4
    Идентификатор : 7
    Формат : UTF-8
    Идентификатор кодека : S_TEXT/UTF8
    Идентификатор кодека/Информация : UTF-8 Plain Text
    Продолжительность : 1 ч. 26 м.
    Битрейт : 66 бит/сек
    Count of elements : 1458
    Размер потока : 42,5 Кбайт (0%)
    Язык : English
    Default : Нет
    Forced : Нет
    Текст #5
    Идентификатор : 8
    Формат : PGS
    Режим смешивания : zlib
    Идентификатор кодека : S_HDMV/PGS
    Идентификатор кодека/Информация : Picture based subtitle format used on BDs/HD-DVDs
    Продолжительность : 1 ч. 26 м.
    Битрейт : 57,4 Кбит/сек
    Count of elements : 3216
    Размер потока : 35,7 Мбайт (0%)
    Заголовок : PGS
    Язык : English
    Default : Нет
    Forced : Нет
    Меню
    00:00:00.000 : en:Main Titles
    00:05:06.556 : en:Attack at the World Court
    00:09:24.230 : en:The Promise
    00:12:03.597 : en:The Master
    00:17:21.081 : en:Hospital Ambush
    00:20:44.117 : en:Interrogation
    00:24:06.111 : en:Welcome to Paris
    00:29:48.661 : en:Searching for Genevieve
    00:35:57.989 : en:Superspy Chase
    00:41:56.472 : en:Brothers
    00:47:48.323 : en:Showtime!
    00:54:17.212 : en:Shy Shen
    01:05:50.988 : en:The First Cut
    01:11:06.512 : en:Tower Duel
    01:15:14.760 : en:What Goes Up
    01:21:43.857 : en:Outtakes/End Credits

    Release was prepared by 60-fps.org



    Last edited by Kryl on 2015-11-21 22:00; edited 1 time in total
  2. Longevity:
    6 years 11 months
    Posts:
    16
    Gender:
    Male
    Спасибо ...
    21-Nov-2015 10:00 (after 6 days)
  3. Longevity:
    6 years 5 months
    Posts:
    4
    Gender:
    Male
    Большое СПАСИБО!!!
    09-Dec-2015 13:23 (after 18 days)
  4. Longevity:
    4 years 7 months
    Posts:
    285
    Gender:
    Male
    Updated at 1080p
    20-Jun-2021 20:41 (after 5 years 6 months)


You cannot post new topics in this forum
You cannot reply to topics in this forum
You cannot edit your posts in this forum
You cannot delete your posts in this forum
You cannot vote in polls in this forum
You cannot attach files in this forum
You cannot download files in this forum