1. Longevity:
    7 years
    Posts:
    2413
    Gender:
    Male
    -Calvin Harris ft. Rihanna - This Is What You Came For (2016) Full HD 1080p | 60 fps- -Информация
    Исполнитель: Calvin Harris ft. Rihanna
    Название: This Is What You Came For
    Год выхода: 2016
    Продолжительность: 00:04:02
    Описание:
    Популярный диджей и бывший возлюбленный американской певицы Тейлор Свифт Келвин Харрис показал клип на совместную с Рианной композицию «This Is What You Came For».
    -Файл
    Кодек: MPEG4 | ISO/AVC | H.264 | [email protected]
    Формат: MKV
    Качество: Full HD 1080p | 60 fps
    Видео : 1920 x 1080 (1.778) | 59.940 fps 25.0 Мбит/сек
    Аудио 1: AAC | 512 Кбит/сек | 44.1 KHz | 2.0 channels
    Аудио 2: AC3 | 640 Кбит/сек | 44.1 KHz | 2.0 channels
    Аудио 3: DTS | 1025 Кбит/сек | 44.1 KHz | 6.0 channels

    MediaInfo

    Общее
    Уникальный идентификатор : 197807151690432046737181402711733669040 (0x94D0458BDE053E7FBF52DBBBC9D18CB0)
    Полное имя : H:\Clips\Calvin Harris - This Is What You Came For (feat Rihanna).60fps.mkv
    Формат : Matroska
    Версия формата : Version 2
    Размер файла : 775 Мбайт
    Продолжительность : 4 м. 1 с.
    Общий поток : 26,9 Мбит/сек
    Название фильма : Calvin Harris - This Is What You Came For (feat Rihanna).60fps https://60-fps.org/
    Дата кодирования : UTC 2020-12-30 13:54:45
    Программа кодирования : mkvmerge v5.8.0 ('No Sleep / Pillow') built on Sep 2 2012 15:37:04
    Библиотека кодирования : libebml v1.2.3 + libmatroska v1.3.0
    Видео
    Идентификатор : 1
    Формат : AVC
    Формат/Информация : Advanced Video Codec
    Профиль формата : High [email protected]
    Параметр CABAC формата : Да
    Параметр ReFrames формата : 4 кадра
    Режим смешивания : Header stripping
    Идентификатор кодека : V_MPEG4/ISO/AVC
    Продолжительность : 4 м. 1 с.
    Номинальный битрейт : 25,0 Мбит/сек
    Ширина : 1920 пикселей
    Высота : 1080 пикселей
    Соотношение сторон : 16:9
    Режим частоты кадров : Постоянный
    Частота кадров : 59,940 (60000/1001) кадров/сек
    Цветовое пространство : YUV
    Субдискретизация насыщенности : 4:2:0
    Битовая глубина : 10 бит
    Тип развёртки : Прогрессивная
    Бит/(Пиксели*Кадры) : 0.201
    Библиотека кодирования : x264 core 146 r2538 121396c
    Настройки программы : cabac=1 / ref=4 / deblock=1:-2:-2 / analyse=0x3:0x113 / me=hex / subme=8 / psy=1 / psy_rd=1.00:0.25 / mixed_ref=1 / me_range=16 / chroma_me=1 / trellis=1 / 8x8dct=1 / cqm=0 / deadzone=6,6 / fast_pskip=1 / chroma_qp_offset=-4 / threads=12 / lookahead_threads=3 / sliced_threads=0 / nr=0 / decimate=0 / interlaced=0 / bluray_compat=0 / constrained_intra=0 / bframes=3 / b_pyramid=2 / b_adapt=2 / b_bias=0 / direct=3 / weightb=1 / open_gop=0 / weightp=2 / keyint=599 / keyint_min=59 / scenecut=40 / intra_refresh=0 / rc_lookahead=40 / rc=2pass / mbtree=1 / bitrate=25000 / ratetol=1.0 / qcomp=0.80 / qpmin=0 / qpmax=81 / qpstep=4 / cplxblur=20.0 / qblur=0.5 / vbv_maxrate=50000 / vbv_bufsize=50000 / nal_hrd=none / filler=0 / ip_ratio=1.10 / aq=1:0.50
    Язык : English
    Default : Да
    Forced : Нет
    Аудио #1
    Идентификатор : 2
    Формат : AAC
    Формат/Информация : Advanced Audio Codec
    Профиль формата : HE-AAC / LC
    Идентификатор кодека : A_AAC
    Продолжительность : 4 м. 1 с.
    Каналы : 2 канала
    Расположение каналов : Front: L R
    Частота : 88,2 КГц / 44,1 КГц
    Частота кадров : 43,066 кадра/сек (1024 spf)
    Метод сжатия : С потерями
    Default : Да
    Forced : Да
    Аудио #2
    Идентификатор : 3
    Формат : AC-3
    Формат/Информация : Audio Coding 3
    Расширение режима : CM (complete main)
    Параметр Endianness формата : Big
    Режим смешивания : Header stripping
    Идентификатор кодека : A_AC3
    Продолжительность : 4 м. 1 с.
    Вид битрейта : Постоянный
    Битрейт : 640 Кбит/сек
    Каналы : 2 канала
    Расположение каналов : Front: L R
    Частота : 44,1 КГц
    Частота кадров : 28,711 кадров/сек (1536 spf)
    Битовая глубина : 16 бит
    Метод сжатия : С потерями
    Размер потока : 18,4 Мбайт (2%)
    Default : Нет
    Forced : Нет
    Аудио #3
    Идентификатор : 4
    Формат : DTS
    Формат/Информация : Digital Theater Systems
    Режим : 16
    Параметр Endianness формата : Big
    Режим смешивания : Header stripping
    Идентификатор кодека : A_DTS
    Продолжительность : 4 м. 1 с.
    Вид битрейта : Постоянный
    Битрейт : 1025 Кбит/сек
    Каналы : 6 каналов
    Расположение каналов : Front: L C R, Side: L R, LFE
    Частота : 44,1 КГц
    Частота кадров : 86,133 кадров/сек (512 spf)
    Битовая глубина : 16 бит
    Метод сжатия : С потерями
    Размер потока : 29,5 Мбайт (4%)
    Default : Нет
    Forced : Нет

    Release was prepared by 60-fps.org

  2. Longevity:
    3 years 3 months
    Posts:
    65
    Gender:
    Male
    Reload the Torrent
    30-Dec-2020 06:15 (after 4 years 4 months)
  3. Longevity:
    4 years 8 months
    Posts:
    322
    Gender:
    Male
    12194Reload the Torrent
    Updated
    30-Dec-2020 17:24 (after 11 hours)
  4. Longevity:
    3 years 3 months
    Posts:
    65
    Gender:
    Male
    12201
    12194Reload the Torrent
    Updated
    The download torrent does not start
    31-Dec-2020 00:12 (after 6 hours)
  5. Longevity:
    1 year 11 months
    Posts:
    1
    Gender:
    Unknown
    The download torrent don't work
    05-Feb-2021 05:54 (after 1 month 5 days)
  6. Longevity:
    4 years 8 months
    Posts:
    322
    Gender:
    Male
    Скачало более 50ти человек!!! Раздача работает 24/7!!! Вот скрин >>> https://ibb.co/S6KWnQs
    06-Feb-2021 16:08 (after 1 day 10 hours)


You cannot post new topics in this forum
You cannot reply to topics in this forum
You cannot edit your posts in this forum
You cannot delete your posts in this forum
You cannot vote in polls in this forum
You cannot attach files in this forum
You cannot download files in this forum