[Цитировать]
Kryl

-Calvin Harris - Outside ft. Ellie Goulding (2014) WEBRip 1080p | 60 fps- -Информация о Клипе
Исполнитель: Calvin Harris
Название: Outside ft. Ellie Goulding
Год выхода: 2014
Продолжительность: 00:03:45-Файл
Кодек: MPEG4/ISO/AVC/ H.264
Формат: MKV
Качество: WEBRip 1080p
Видео: 1920 x 680 (2.824) at 59.940 fps ~5.0 Мбит/сек
Аудио : MP3 | 320 Кбит/сек | 44.1 KHz | 2.0 channels

MI

Видео
Идентификатор : 1
Формат : AVC
Формат/Информация : Advanced Video Codec
Профиль формата : Main@L4.2
Параметр CABAC формата : Да
Параметр ReFrames формата : 3 кадра
Идентификатор кодека : V_MPEG4/ISO/AVC
Продолжительность : 3 м. 45 с.
Битрейт : 4874 Кбит/сек
Ширина : 1920 пикселей
Высота : 680 пикселей
Соотношение сторон : 2,824
Режим частоты кадров : Постоянный
Частота кадров : 59,880 кадров/сек
Частота кадров в оригинале : 59,940 кадров/сек
Стандарт вещания : PAL
Цветовое пространство : YUV
Субдискретизация насыщенности : 4:2:0
Битовая глубина : 8 бит
Тип развёртки : Прогрессивная
Бит/(Пиксели*Кадры) : 0.062
Размер потока : 131 Мбайт (92%)
Заголовок : www.60-fps.org
Язык : English
Default : Да
Forced : Нет
Основные цвета : BT.709
Характеристики трансфера : BT.709
Коэффициенты матрицы : BT.709
colour_range : Limited
Аудио
Идентификатор : 2
Формат : MPEG Audio
Версия формата : Version 1
Профиль формата : Layer 3
Режим : Joint stereo
Идентификатор кодека : A_MPEG/L3
Идентификатор кодека/Подсказка : MP3
Продолжительность : 3 м. 45 с.
Вид битрейта : Постоянный
Битрейт : 320 Кбит/сек
Каналы : 2 канала
Частота : 44,1 КГц
Метод сжатия : С потерями
Размер потока : 8,61 Мбайт (6%)
Заголовок : MP3
Библиотека кодирования : LAME3.99.5
Default : Да
Forced : Нет

Релиз подготовлен 60 - fps

[60-fps.org].t839.torrent
Торрент: Зарегистрирован [ 2015-07-03 23:23 ] · 8B34C679007C27376212E8623501EAB735894698

Скачать .torrent

Скачать

12 KB

Статус: проверено
Скачан: 15 раз
Поблагодарили:
Размер: 143 MB
 
Похожие Темы
 
Показать сообщения:    

Текущее время: 22-Фев 16:25

Часовой пояс: UTC + 3


Вы не можете начинать темы
Вы не можете отвечать на сообщения
Вы не можете редактировать свои сообщения
Вы не можете удалять свои сообщения
Вы не можете голосовать в опросах
Вы не можете прикреплять файлы к сообщениям
Вы можете скачивать файлы