-Название: Букашки. Приключение в Долине муравьев
Оригинальное название: Minuscule - Minuscule - La vallee des fourmis perdues
Год выпуска: 2013
Страна: Франция, Бельгия
Жанр: мультфильм, приключения, семейный
Продолжительность: 01:28:50
Перевод: Не требуется-Режиссер: Хелен Жиро, Томас Забо-Описание:
Активные и любознательные черные муравьишки обнаруживают брошенную после пикника коробку с сахаром. Дружный отряд муравьишек вместе с Божьей коровкой решают переправить лакомство в муравейник. Но сладкая коробка уже успела нарушить спокойствие во всей долине, и свои планы на лакомство появились у других обитателей леса, в частности - у злобных красных муравьев-захватчиков. А, стало быть, на пути к заветной цели черным муравьишкам предстоит преодолеть массу опасностей и приключений.-Рейтинг

imdb.com: 7.10 (2077)-Качество: 3D BDRip 1080p / 120 FPS
Формат: MKV
Видео кодек: AVC
Аудио кодек:AC3, DTS-HD
Видео: AVC, 1920x800, 20000 kbps, 119,880 fps
Аудио №1: AC3 / 5.1 / 48 kHz / 640 kbps / 16 bit
Аудио №2: DTS-HD / 5.1 / 48 kHz / 3189 kbps / 24 bit
Навигация по главам: есть- -

Внимание!

Необходим дисплей с 3d поддержкой видео.А так же частотой обновления 100-120hz.Иначе разницы вы не ощутите.
Проверено на windows media player, на ПК.Нагрузка на 8 ядер 20-25%.К сожалению у меня нет 3d монитора.Так что надеюсь на вашу поддержку и анализ данного видео.
Приятного просмотра. =)

MI

General
Unique ID : 204107765646583133295785098057171591539 (0x998DB9CC54627478BB361922DFEBE173)
Complete name : A:3DБукашки 3D 1080p 120fps (Experimental).mkv
Format : Matroska
Format version : Version 4 / Version 2
File size : 15.2 GiB
Duration : 1h 28mn
Overall bit rate mode : Variable
Overall bit rate : 24.4 Mbps
Encoded date : UTC 2014-10-13 10:14:46
Writing application : mkvmerge v6.9.1 ('Blue Panther') 64bit built on Apr 18 2014 18:23:38
Writing library : libebml v1.3.0 + libmatroska v1.4.1
Video
ID : 1
Format : AVC
Format/Info : Advanced Video Codec
Format profile : High@L4.1
Format settings, CABAC : Yes
Format settings, ReFrames : 4 frames
Codec ID : V_MPEG4/ISO/AVC
Duration : 1h 28mn
Bit rate : 20.0 Mbps
Width : 1 920 pixels
Height : 800 pixels
Display aspect ratio : 2.40:1
Frame rate : 119.880 fps
Color space : YUV
Chroma subsampling : 4:2:0
Bit depth : 8 bits
Scan type : Progressive
Bits/(Pixel*Frame) : 0.109
Stream size : 12.5 GiB (82%)
Writing library : x264 core 130 r2273 b3065e6
Encoding settings : cabac=1 / ref=4 / deblock=1:-1:-1 / analyse=0x3:0 / me=umh / subme=9 / psy=1 / psy_rd=1.00:0.00 / mixed_ref=1 / me_range=44 / chroma_me=0 / trellis=2 / 8x8dct=1 / cqm=0 / deadzone=21,11 / fast_pskip=0 / chroma_qp_offset=-2 / threads=12 / lookahead_threads=1 / sliced_threads=0 / nr=0 / decimate=0 / interlaced=0 / bluray_compat=0 / constrained_intra=0 / bframes=5 / b_pyramid=2 / b_adapt=2 / b_bias=0 / direct=3 / weightb=1 / open_gop=0 / weightp=2 / keyint=250 / keyint_min=120 / scenecut=40 / intra_refresh=0 / rc_lookahead=60 / rc=2pass / mbtree=1 / bitrate=20000 / ratetol=1.0 / qcomp=0.80 / qpmin=0 / qpmax=69 / qpstep=4 / cplxblur=20.0 / qblur=0.5 / ip_ratio=1.40 / aq=1:0.80
Language : English
Default : Yes
Forced : No
Audio #1
ID : 2
Format : AC-3
Format/Info : Audio Coding 3
Mode extension : CM (complete main)
Codec ID : A_AC3
Duration : 1h 28mn
Bit rate mode : Constant
Bit rate : 640 Kbps
Channel(s) : 6 channels
Channel positions : Front: L C R, Side: L R, LFE
Sampling rate : 48.0 KHz
Bit depth : 16 bits
Compression mode : Lossy
Stream size : 407 MiB (3%)
Title : Оригинал
Default : Yes
Forced : No
Audio #2
ID : 3
Format : DTS
Format/Info : Digital Theater Systems
Format profile : MA / Core
Codec ID : A_DTS
Duration : 1h 28mn
Bit rate mode : Variable
Bit rate : 3 190 Kbps / 1 510 Kbps
Channel(s) : 6 channels
Channel positions : Front: L C R, Side: L R, LFE
Sampling rate : 48.0 KHz
Bit depth : 24 bits
Compression mode : Lossless / Lossy
Title : Оригинал
Default : No
Forced : No
Menu
00:00:00.000 : en:Chapter 1
00:07:47.341 : en:Chapter 2
00:12:19.280 : en:Chapter 3
00:20:07.414 : en:Chapter 4
00:26:19.202 : en:Chapter 5
00:32:07.800 : en:Chapter 6
00:37:00.635 : en:Chapter 7
00:45:58.547 : en:Chapter 8
00:53:51.061 : en:Chapter 9
01:00:25.413 : en:Chapter 10
01:08:05.664 : en:Chapter 11
01:13:59.601 : en:Chapter 12
01:19:39.024 : en:Chapter 13
01:23:12.779 : en:Chapter 14
01:28:49.032 : en:Chapter 15

Скриншоты

[60-fps.org].t54.torrent
Торрент: Зарегистрирован [ 2014-10-17 09:23 ] · 473606F8B3A73B1FF63DA009CAB653BA13CB3F38

Скачать .torrent

Скачать

76 KB

Статус: проверено
Скачан: 28 раз
Поблагодарили:
Размер: 15,15 GB
 


Последний раз редактировалось: bot (2014-10-18 05:10), всего редактировалось 1 раз

Топик был перенесен из форума Зарубежные фильмы 60fps в форум Мультфильмы 60fps
KRYL

Топик был перенесен из форума Мультфильмы 60fps в форум Экспериментальное видео
Tiberiumsun69

[Цитировать]
Kryl

А почему сюда ?

[Цитировать]
Kryl

А почему сюда ? и Аватара ?

[Цитировать]
Гость

120 fps
 
Показать сообщения:    

Текущее время: 20-Фев 02:28

Часовой пояс: UTC + 3


Вы не можете начинать темы
Вы не можете отвечать на сообщения
Вы не можете редактировать свои сообщения
Вы не можете удалять свои сообщения
Вы не можете голосовать в опросах
Вы не можете прикреплять файлы к сообщениям
Вы можете скачивать файлы