[Цитировать]
Талямба

Фильм «Когда остальные сдаются, они идут до конца» Фильм- Информация
Название: Бросок кобры
Оригинальное название: G.I. Joe: The Rise of Cobra
Год выхода: 2009
Жанр: фантастика, боевик, триллер, приключения
Режиссер: Стивен Соммерс
Сценарий: Стюарт Битти, Дэвид Эллиот, Пол Ловетт,
Продюсер: Лоренцо Ди Бонавентура, Боб Дюксэй, Брайан Голднер,
В ролях: Ченнинг Татум,Марлон Уайанс,Сиенна Миллер,Рэйчел Николс,Адевале Акинойе-Агбаже,Кристофер Экклстон,Джозеф Гордон-Левитт,Рэй Парк,Ли Бён-хон,Деннис Куэйд
--Сюжет:
Базирующееся в Египте высокотехнологичное международное военное подразделение, известное как G.I. Joe, противостоит зловещей корпорации, руководимой знаменитым оружейным бароном.-- Страна: США, Чехия
Продолжительность: 01:57:59

Файл
Кодек: MPEG4/ISO/AVC H.264
Формат: MKV
Качество: BDRip 720p | 60 fps
Видео: 1280 x 532 (2.406) | 59.880 fps | 6150 Кбит/сек
Аудио : AC3 | 5.1 | 48 kHz | 448 kbps | 16 bit | Дубляж |
Субтитры: НЕТ

MedifInfo

Видео
Идентификатор : 1
Формат : AVC
Формат/Информация : Advanced Video Codec
Профиль формата : High@L4.0
Параметр CABAC формата : Да
Параметр ReFrames формата : 8 кадров
Идентификатор кодека : V_MPEG4/ISO/AVC
Продолжительность : 1 ч. 57 м.
Битрейт : 5579 Кбит/сек
Ширина : 1280 пикселей
Высота : 532 пикселя
Соотношение сторон : 2,40:1
Режим частоты кадров : Постоянный
Частота кадров : 59,880 кадров/сек
Частота кадров в оригинале : 59,940 кадров/сек
Цветовое пространство : YUV
Субдискретизация насыщенности : 4:2:0
Битовая глубина : 8 бит
Тип развёртки : Прогрессивная
Бит/(Пиксели*Кадры) : 0.137
Размер потока : 4,60 Гбайт (91%)
Библиотека кодирования : x264 core 130 r2273 b3065e6
Настройки программы : cabac=1 / ref=8 / deblock=1:-3:-2 / analyse=0x3:0x133 / me=umh / subme=7 / psy=1 / psy_rd=1.00:0.00 / mixed_ref=1 / me_range=19 / chroma_me=1 / trellis=2 / 8x8dct=1 / cqm=0 / deadzone=21,11 / fast_pskip=0 / chroma_qp_offset=-2 / threads=6 / lookahead_threads=1 / sliced_threads=0 / nr=0 / decimate=0 / interlaced=0 / bluray_compat=0 / constrained_intra=0 / bframes=5 / b_pyramid=2 / b_adapt=2 / b_bias=0 / direct=3 / weightb=1 / open_gop=0 / weightp=2 / keyint=599 / keyint_min=59 / scenecut=40 / intra_refresh=0 / rc_lookahead=60 / rc=crf / mbtree=1 / crf=16.0 / qcomp=0.60 / qpmin=0 / qpmax=69 / qpstep=4 / ip_ratio=1.40 / aq=1:1.20
Default : Да
Forced : Нет
Аудио
Идентификатор : 2
Формат : AC-3
Формат/Информация : Audio Coding 3
Расширение режима : CM (complete main)
Параметр Endianness формата : Big
Идентификатор кодека : A_AC3
Продолжительность : 1 ч. 57 м.
Вид битрейта : Постоянный
Битрейт : 448 Кбит/сек
Каналы : 6 каналов
Расположение каналов : Front: L C R, Side: L R, LFE
Частота : 48,0 КГц
Битовая глубина : 16 бит
Метод сжатия : С потерями
Размер потока : 378 Мбайт (7%)
Default : Да
Forced : Нет


Последний раз редактировалось: Талямба (2016-10-05 12:00), всего редактировалось 1 раз

[Цитировать]
kubvil

Спасибо, а 2 часть будет?

[Цитировать]
Талямба

Пока второй части у меня нет,может быть со времинем... Подмигиваю
 
Показать сообщения:    

Текущее время: 07-Дек 19:22

Часовой пояс: UTC + 3


Вы не можете начинать темы
Вы не можете отвечать на сообщения
Вы не можете редактировать свои сообщения
Вы не можете удалять свои сообщения
Вы не можете голосовать в опросах
Вы не можете прикреплять файлы к сообщениям
Вы не можете скачивать файлы