Britney Spears - Oops! I Did It Again Uncut (2009) HD 1080p | 60 fps Dan Balan - Chica Bomb (2010) WEBRip 1080p | 60 fps Luis Fonsi - Despacito ft. Daddy Yankee (2017) WEBRip 1080p | 60 fps Britney Spears - Toxic (2004) HDTVRip 1080p | 60 fps Evanescence - Synthesis Live (2018) BDRip 1080p | 60 fps Bebe Rexha - I Got You (2017) WEBRip 1080p | 60 fps Britney Spears - Lucky (2009) Full HD 1080p | 60 fps Clean Bandit - Rockabye ft. Sean Paul & Anne-Marie (2016) WEBRip 1080p | 60 fps
  1. Longevity:
    4 years 10 months
    Posts:
    2411
    Gender:
    Male
    -Britney Spears - Stronger (2009) Full HD 1080p | 60 fps- -Информация
    Исполнитель: Britney Spears
    Название: Stronger
    Год выхода: 2009
    Продолжительность: 00:03:38-Файл
    Кодек: MPEG4/ISO/AVC/H.264/High@L4.2
    Формат: MKV
    Качество: Full HD 1080p | 60 fps
    Видео : 1440 x 1080 (1.333) | 59.940 fps 20.0 Мбит/сек
    Аудио 1: AC-3 | 448 Кбит/сек | 48.0 KHz | 5.1 ch
    Аудио 2: DTS | 1413 Кбит/сек | 48.0 KHz | 2.0 ch

    MediaInfo

    Видео
    Идентификатор : 1
    Формат : AVC
    Формат/Информация : Advanced Video Codec
    Профиль формата : High@L4.2
    Параметр CABAC формата : Да
    Параметр ReFrames формата : 3 кадра
    Идентификатор кодека : V_MPEG4/ISO/AVC
    Продолжительность : 3 м. 38 с.
    Вид битрейта : Переменный
    Битрейт : 19,6 Мбит/сек
    Максимальный битрейт : 20,0 Мбит/сек
    Ширина : 1920 пикселей
    Высота : 1080 пикселей
    Соотношение сторон : 16:9
    Режим частоты кадров : Постоянный
    Частота кадров : 59,880 кадров/сек
    Частота кадров в оригинале : 59,940 кадров/сек
    Стандарт вещания : PAL
    Цветовое пространство : YUV
    Субдискретизация насыщенности : 4:2:0
    Битовая глубина : 8 бит
    Тип развёртки : Прогрессивная
    Бит/(Пиксели*Кадры) : 0.158
    Размер потока : 510 Мбайт (89%)
    Заголовок : www.60-fps.org
    Язык : English
    Default : Да
    Forced : Нет
    Основные цвета : BT.709
    Характеристики трансфера : BT.709
    Коэффициенты матрицы : BT.709
    colour_range : Limited
    DURATION : 00:03:36.203000000
    NUMBER_OF_FRAMES : 20269
    NUMBER_OF_BYTES : 38186796
    _STATISTICS_WRITING_APP : mkvmerge v7.6.0 ('Garden of Dreams') 32bit built on Feb 8 2015 12:51:39
    _STATISTICS_WRITING_DATE_UTC : 2016-10-19 18:39:18
    _STATISTICS_TAGS : BPS DURATION NUMBER_OF_FRAMES NUMBER_OF_BYTES
    Аудио #1
    Идентификатор : 2
    Формат : AC-3
    Формат/Информация : Audio Coding 3
    Расширение режима : CM (complete main)
    Параметр Endianness формата : Big
    Идентификатор кодека : A_AC3
    Продолжительность : 3 м. 38 с.
    Вид битрейта : Постоянный
    Битрейт : 448 Кбит/сек
    Каналы : 6 каналов
    Расположение каналов : Front: L C R, Side: L R, LFE
    Частота : 48,0 КГц
    Битовая глубина : 16 бит
    Метод сжатия : С потерями
    Задержка видео : 281 мс.
    Размер потока : 11,7 Мбайт (2%)
    Default : Да
    Forced : Нет
    Аудио #2
    Идентификатор : 3
    Формат : DTS
    Формат/Информация : Digital Theater Systems
    Режим : 16
    Параметр Endianness формата : Big
    Идентификатор кодека : A_DTS
    Продолжительность : 3 м. 38 с.
    Вид битрейта : Постоянный
    Битрейт : 1413 Кбит/сек
    Каналы : 2 канала
    Расположение каналов : Front: L R
    Частота : 48,0 КГц
    Битовая глубина : 16 бит
    Метод сжатия : С потерями
    Размер потока : 36,8 Мбайт (6%)
    Default : Нет
    Forced : Нет

    Release was prepared by 60 - fps



You cannot post new topics in this forum
You cannot reply to topics in this forum
You cannot edit your posts in this forum
You cannot delete your posts in this forum
You cannot vote in polls in this forum
You cannot attach files in this forum
You cannot download files in this forum