Lady Gaga - Bad Romance (2009) Master | ProRes Britney Spears - Slumber Party ft. Tinashe (2016) Master | ProRes Jennifer Lopez - Waiting For Tonight (1999) 540p | Master | ProRes Rihanna - Shut Up And Drive (2007) Master | ProRes INNA - J'Adore (2012) Master | ProRes Ariana Grande The Weeknd - Love Me Harder (2014) Master | ProRes Lady Gaga - Paparazzi (2009) Master | ProRes Jennifer Lopez - I'm Into You ft. Lil Wayne (2011) Master | ProRes
  1. Стаж:
    3 года 11 месяцев
    Сообщений:
    2404
    Пол:
    Мужской
    -Britney Spears - Slumber Party ft. Tinashe (2016) Master | ProRes --Информация о Клипе
    Исполнитель: Britney Spears
    Название: Slumber Party ft. Tinashe
    Год выхода: 2016
    Продолжительность: 00:05:29-Описание:
    Slumber Party - Пижамная вечеринка. Песня в стиле R&B известной американской певицы Бритни Спирс. Песня была выпущена 16 ноября 2016 года в качестве второго сингла девятого студийного альбома певицы. Песня была написана Бритни Спирс совместно с Мэтью Бернсом, Джулией Майклз Джо Джиниак и Gerald Gillum. Продюсером выступил Мэтью Бернс. В песне рассказывается о пижамной вечеринке с выпивкой и другими развлечениями. Кроме Бритни Спирс в клипе также приняла участие американская певица Тинаше.--Файл
    Кодек: APCH
    Контейнер: MOV
    Формат: ProRes
    Качество: Master
    Видео: 1920 x 1080 (1.778) | 23.976 fps | 139 Мбит/сек
    Аудио: PCM | 1536 Кбит/сек | 2.0 канала | 48.0 КГц | 16 бит

    MediaInfo

    Видео
    Идентификатор : 1
    Формат : ProRes
    Версия формата : Version 0
    Профиль формата : High
    Идентификатор кодека : apch
    Продолжительность : 5 м. 29 с.
    Вид битрейта : Переменный
    Битрейт : 139 Мбит/сек
    Ширина : 1920 пикселей
    Высота : 1080 пикселей
    Соотношение сторон : 16:9
    Режим частоты кадров : Постоянный
    Частота кадров : 23,976 кадра/сек
    Цветовое пространство : YUV
    Субдискретизация насыщенности : 4:2:2
    Тип развёртки : Прогрессивная
    Бит/(Пиксели*Кадры) : 2.805
    Размер потока : 5,34 Гбайт (99%)
    Библиотека кодирования : Apple
    Язык : English
    Дата кодирования : UTC 2016-12-11 16:02:27
    Дата пометки : UTC 2016-12-11 16:02:27
    Основные цвета : BT.709
    Характеристики трансфера : BT.709
    Коэффициенты матрицы : BT.709
    Аудио
    Идентификатор : 2
    Формат : PCM
    Параметр Endianness формата : Little
    Параметр Sign формата : Signed
    Идентификатор кодека : sowt
    Продолжительность : 5 м. 29 с.
    Вид битрейта : Постоянный
    Битрейт : 1536 Кбит/сек
    Каналы : 2 канала
    Расположение каналов : Front: L R
    Частота : 48,0 КГц
    Битовая глубина : 16 бит
    Размер потока : 60,3 Мбайт (1%)
    Язык : English
    Дата кодирования : UTC 2016-12-11 16:02:27
    Дата пометки : UTC 2016-12-11 16:02:27
    Прочее
    Идентификатор : 3
    Тип : Time code
    Формат : QuickTime TC
    Продолжительность : 5 м. 29 с.
    Временной код первого кадра : 00:00:00:00
    TimeCode_Striped/String : Да
    Язык : English
    Дата кодирования : UTC 2016-12-11 16:02:27
    Дата пометки : UTC 2016-12-11 16:02:27

    Релиз подготовлен 60 - fps



Вы не можете начинать темы
Вы не можете отвечать на сообщения
Вы не можете редактировать свои сообщения
Вы не можете удалять свои сообщения
Вы не можете голосовать в опросах
Вы не можете прикреплять файлы к сообщениям
Вы не можете скачивать файлы