Dan Balan - Chica Bomb (2010) WEBRip 1080p | 60 fps Britney Spears - Toxic (2004) HDTVRip 1080p | 60 fps Luis Fonsi - Despacito ft. Daddy Yankee (2017) WEBRip 1080p | 60 fps Britney Spears - Slumber Party ft. Tinashe (2016) Full HD 1080p | 60 fps Clean Bandit - Rockabye ft. Sean Paul & Anne-Marie (2016) WEBRip 1080p | 60 fps Serebro - В Космосе (2017) Full HD 1080p | 60 fps MARUV & BOOSIN - Drunk Groove (2018) WEBRip 1080p | 60 fps Bebe Rexha - I Got You (2017) WEBRip 1080p | 60 fps
  1. Стаж:
    4 года 2 месяца
    Сообщений:
    2433
    Пол:
    Мужской
    -Britney Spears - Slumber Party ft. Tinashe (2016) Full HD 1080p | 60 fps- -Информация
    Исполнитель: Britney Spears
    Название: Slumber Party ft. Tinashe
    Год выхода: 2016
    Продолжительность: 00:05:29
    -Описание:
    Slumber Party - Пижамная вечеринка. Песня в стиле R&B известной американской певицы Бритни Спирс. Песня была выпущена 16 ноября 2016 года в качестве второго сингла девятого студийного альбома певицы. Песня была написана Бритни Спирс совместно с Мэтью Бернсом, Джулией Майклз Джо Джиниак и Gerald Gillum. Продюсером выступил Мэтью Бернс. В песне рассказывается о пижамной вечеринке с выпивкой и другими развлечениями. Кроме Бритни Спирс в клипе также приняла участие американская певица Тинаше.-Файл
    Кодек: H.264
    Формат: MKV
    Качество: Full HD 1080p | 60 fps
    Видео: 1920 x 1080 (1.778) | 59.940 fps 30.0 Мбит/сек
    Аудио: DTS | 1413 Кбит/сек | 48.0 KHz | 2.0 channels

    MediaInfo

    Видео
    Идентификатор : 1
    Формат : AVC
    Формат/Информация : Advanced Video Codec
    Профиль формата : High@L4.1
    Параметр CABAC формата : Да
    Параметр ReFrames формата : 4 кадра
    Идентификатор кодека : V_MPEG4/ISO/AVC
    Продолжительность : 5 м. 29 с.
    Битрейт : 30,0 Мбит/сек
    Ширина : 1920 пикселей
    Высота : 1080 пикселей
    Соотношение сторон : 16:9
    Режим частоты кадров : Постоянный
    Частота кадров : 59,880 кадров/сек
    Частота кадров в оригинале : 59,940 кадров/сек
    Цветовое пространство : YUV
    Субдискретизация насыщенности : 4:2:0
    Битовая глубина : 8 бит
    Тип развёртки : Прогрессивная
    Бит/(Пиксели*Кадры) : 0.242
    Размер потока : 1,13 Гбайт (94%)
    Заголовок : www.60-fps.org
    Библиотека кодирования : x264 core 155 r2901 7d0ff22
    Настройки программы : cabac=1 / ref=3 / deblock=1:-3:-3 / analyse=0x3:0x113 / me=umh / subme=9 / psy=1 / psy_rd=1.00:0.25 / mixed_ref=1 / me_range=32 / chroma_me=1 / trellis=1 / 8x8dct=1 / cqm=0 / deadzone=6,6 / fast_pskip=1 / chroma_qp_offset=-4 / threads=12 / lookahead_threads=1 / sliced_threads=0 / nr=0 / decimate=0 / interlaced=0 / bluray_compat=0 / constrained_intra=0 / bframes=3 / b_pyramid=2 / b_adapt=1 / b_bias=0 / direct=1 / weightb=1 / open_gop=0 / weightp=2 / keyint=599 / keyint_min=59 / scenecut=40 / intra_refresh=0 / rc_lookahead=40 / rc=2pass / mbtree=1 / bitrate=29999 / ratetol=1.0 / qcomp=0.80 / qpmin=0 / qpmax=69 / qpstep=4 / cplxblur=20.0 / qblur=0.5 / vbv_maxrate=62500 / vbv_bufsize=78125 / nal_hrd=none / filler=0 / ip_ratio=1.10 / aq=1:0.50
    Default : Да
    Forced : Нет
    Аудио
    Идентификатор : 2
    Формат : DTS
    Формат/Информация : Digital Theater Systems
    Режим : 16
    Параметр Endianness формата : Big
    Идентификатор кодека : A_DTS
    Продолжительность : 5 м. 29 с.
    Вид битрейта : Постоянный
    Битрейт : 1413 Кбит/сек
    Каналы : 2 канала
    Расположение каналов : Front: L R
    Частота : 48,0 КГц
    Битовая глубина : 16 бит
    Метод сжатия : С потерями
    Задержка видео : 83 мс.
    Размер потока : 55,5 Мбайт (4%)
    Язык : English
    Default : Да
    Forced : Нет
    DURATION : 00:05:29.248000000
    NUMBER_OF_FRAMES : 30867
    NUMBER_OF_BYTES : 58153428
    _STATISTICS_WRITING_APP : mkvmerge v7.6.0 ('Garden of Dreams') 32bit built on Feb 8 2015 12:51:39
    _STATISTICS_WRITING_DATE_UTC : 2018-05-14 14:12:04
    _STATISTICS_TAGS : BPS DURATION NUMBER_OF_FRAMES NUMBER_OF_BYTES

    Релиз подготовлен 60 - fps

  2. Стаж:
    6 месяцев 18 дней
    Сообщений:
    1
    Пол:
    Не указан
    thanks
    27-Май-2018 00:29 (спустя 12 дней)
  3. Стаж:
    2 года 1 месяц
    Сообщений:
    1
    Пол:
    Мужской
    thank's excelente video quality!
    03-Сен-2018 00:11 (спустя 3 месяца 6 дней)


Вы не можете начинать темы
Вы не можете отвечать на сообщения
Вы не можете редактировать свои сообщения
Вы не можете удалять свои сообщения
Вы не можете голосовать в опросах
Вы не можете прикреплять файлы к сообщениям
Вы не можете скачивать файлы