Philizz - Video Yearmix (2019) Full HD 1080p | 60 fps Madonna - Rebel Heart Tour (2016) Blu-Ray Rip 1080p | 72 fps NK - ELEFANTE (2019) Full HD 1080p | 60 fps Britney Spears - Oops! I Did It Again Uncut (2009) HD 1080p | 60 fps Snoop Dogg - Wet (2011) Full HD 1080p | 60 fps Nicki Minaj - Anaconda (2014) BDRip 1080p | 60 fps IOWA - Бьёт Бит (2015) Full HD 1080p | 60 fps Katy Perry - E.T. ft. Kanye West (2011) WEBRip 1080p | 60 fps
  1. Longevity:
    6 years 7 months
    Posts:
    2414
    Gender:
    Male
    -Britney Spears - Lucky (2009) Full HD 1080p | 60 fps- -Информация
    Исполнитель: Britney Spears
    Название: Lucky
    Год выхода: 2009
    Продолжительность: 00:04:08-Файл
    Кодек: MPEG4/ISO/AVC/H.264/[email protected]
    Формат: MKV
    Качество: Full HD 1080p | 60 fps
    Видео : 1920 x 976 (1,967) | 59,940 fps 20.0 Мбит/сек
    Аудио : DTS | 1025Кбит/сек | 44.1 KHz | 6.0 ch

    MediaInfo

    Общее
    Уникальный идентификатор : 185329317048139655207086498005390275505 (0x8B6D20CCF82A6F4BAA3A83F0654D33B1)
    Полное имя : H:\Clips\Britney Spears - Lucky.mkv
    Формат : Matroska
    Версия формата : Version 2
    Размер файла : 624 Мбайт
    Продолжительность : 4 м. 8 с.
    Общий поток : 21,1 Мбит/сек
    Название фильма : Britney Spears - Lucky https://60-fps.org/
    Дата кодирования : UTC 2021-03-10 16:19:38
    Программа кодирования : mkvmerge v5.8.0 ('No Sleep / Pillow') built on Sep 2 2012 15:37:04
    Библиотека кодирования : libebml v1.2.3 + libmatroska v1.3.0
    Видео
    Идентификатор : 1
    Формат : AVC
    Формат/Информация : Advanced Video Codec
    Профиль формата : [email protected]
    Параметр CABAC формата : Да
    Параметр ReFrames формата : 4 кадра
    Режим смешивания : Header stripping
    Идентификатор кодека : V_MPEG4/ISO/AVC
    Продолжительность : 4 м. 8 с.
    Битрейт : 20,0 Мбит/сек
    Ширина : 1920 пикселей
    Высота : 976 пикселей
    Соотношение сторон : 1,967
    Режим частоты кадров : Постоянный
    Частота кадров : 59,940 (60000/1001) кадров/сек
    Цветовое пространство : YUV
    Субдискретизация насыщенности : 4:2:0
    Битовая глубина : 8 бит
    Тип развёртки : Прогрессивная
    Бит/(Пиксели*Кадры) : 0.178
    Размер потока : 582 Мбайт (93%)
    Библиотека кодирования : x264 core 146 r2538 121396c
    Настройки программы : cabac=1 / ref=4 / deblock=1:0:0 / analyse=0x3:0x113 / me=umh / subme=8 / psy=1 / psy_rd=1.00:0.25 / mixed_ref=1 / me_range=16 / chroma_me=1 / trellis=1 / 8x8dct=1 / cqm=0 / deadzone=6,6 / fast_pskip=1 / chroma_qp_offset=-4 / threads=12 / lookahead_threads=3 / sliced_threads=0 / nr=0 / decimate=0 / interlaced=0 / bluray_compat=0 / constrained_intra=0 / bframes=3 / b_pyramid=2 / b_adapt=2 / b_bias=0 / direct=3 / weightb=1 / open_gop=0 / weightp=2 / keyint=600 / keyint_min=60 / scenecut=40 / intra_refresh=0 / rc_lookahead=50 / rc=2pass / mbtree=1 / bitrate=20000 / ratetol=1.0 / qcomp=0.80 / qpmin=0 / qpmax=69 / qpstep=4 / cplxblur=20.0 / qblur=0.5 / vbv_maxrate=50000 / vbv_bufsize=50000 / nal_hrd=none / filler=0 / ip_ratio=1.10 / aq=1:0.50
    Язык : English
    Default : Да
    Forced : Нет
    Аудио
    Идентификатор : 2
    Формат : DTS
    Формат/Информация : Digital Theater Systems
    Режим : 16
    Параметр Endianness формата : Big
    Режим смешивания : Header stripping
    Идентификатор кодека : A_DTS
    Продолжительность : 4 м. 8 с.
    Вид битрейта : Постоянный
    Битрейт : 1025 Кбит/сек
    Каналы : 6 каналов
    Расположение каналов : Front: L C R, Side: L R, LFE
    Частота : 44,1 КГц
    Частота кадров : 86,133 кадров/сек (512 spf)
    Битовая глубина : 16 бит
    Метод сжатия : С потерями
    Задержка видео : 300 мс.
    Размер потока : 30,4 Мбайт (5%)
    Default : Да
    Forced : Нет

    Release was prepared by 60-fps.org

  2. Longevity:
    4 years 5 months
    Posts:
    1
    Gender:
    Unknown
    thank you
    18-Oct-2018 22:08 (after 1 year 11 months)
  3. Longevity:
    9 months
    Posts:
    3
    Gender:
    Unknown
    plis resubir
    09-Mar-2021 11:21 (after 2 years 4 months)
  4. Longevity:
    4 years 3 months
    Posts:
    221
    Gender:
    Male
    Updated
    10-Mar-2021 19:23 (after 1 day 8 hours)


You cannot post new topics in this forum
You cannot reply to topics in this forum
You cannot edit your posts in this forum
You cannot delete your posts in this forum
You cannot vote in polls in this forum
You cannot attach files in this forum
You cannot download files in this forum