Lady Gaga - Bad Romance (2009) Master | ProRes Lady Gaga - Poker Face (2009) Master | ProRes Jennifer Lopez - Waiting For Tonight (1999) 540p | Master | ProRes Lady Gaga - Paparazzi (2009) Master | ProRes Britney Spears - Hold It Against Me (2011) Master | ProRes Rihanna feat. Drake - Work (2016) Master | ProRes Lady Gaga - Born This Way (2011) Master | ProRes Rihanna - Shut Up And Drive (2007) Master | ProRes
  1. Longevity:
    5 years 2 months
    Posts:
    2418
    Gender:
    Male
    -Britney Spears - Hold It Against Me (2011) Master | ProRes --Информация о Клипе
    Исполнитель: Britney Spears
    Название: Hold It Against Me
    Год выхода: 2011
    Продолжительность: 00:04:27-Описание:
    Hold It Against Me (рус. Ты был бы против?) - первый сингл поп-певицы Бритни Спирс с седьмого студийного альбома Femme Fatale. Продюсерами сингла выступили Макс Мартин, Dr. Luke и Billboard. Официальная премьера на американском радио состоялась 10 января 2011 года, а спустя день песня стала доступна в iTunes, где менее чем за сутки заняла первое место.
    Многие критики положительно отозвались о треке, хотя некоторым не понравилось смысловое содержание. «Hold It Against Me» дебютировал на первом месте в чартах Канады, Бельгии, Дании и Новой Зеландии, а также в американском Billboard Hot 100, став четвёртой песней Спирс, достигнувшей первого места в этом чарте. Спирс также стала второй певицей (после Мэрайи Кэри), кому удавалось дебютировать на вершине этого чарта более одного раза.
    Съемки видеоклипа на песню «Hold It Against Me» начались 22 января 2011 года. Хореограф клипа — Брайан Фридман, уже работавший с Бритни в эру её альбомов Britney и In the Zone.
    Кастинг танцоров для нового балета Бритни Спирс состоялся 22 декабря 2010 года. Хореограф клипа Брайан Фридман обещает, что в клипе будет много сложных танцевальных движений и что Бритни вернется к своим «фирменным» танцам.
    Режиссёром клипа стал Юнас Окерлунд.
    -Файл
    Кодек: APCH
    Контейнер: MOV
    Формат: ProRes
    Качество: Master
    Видео: 1888 x 1062 (1.778) | 25.000 fps | 174 Мбит/сек
    Аудио: PCM | 2304 Кбит/сек | 2.0 канала | 48 КГц | 24 бит

    MediaInfo

    Формат : QuickTime
    Формат/Информация : Original Apple specifications
    Размер файла : 5,47 Гбайт
    Продолжительность : 4 м. 27 с.
    Режим общего битрейта : Переменный
    Общий поток : 176 Мбит/сек
    Дата кодирования : UTC 2013-04-15 09:06:48
    Дата пометки : UTC 2013-04-15 09:28:35
    Библиотека кодирования : Apple QuickTime 7.6.6
    Media/UUID : 1BA5F9EC-3B46-45DB-A433-07C2DB4D985F
    Media/History/UUID : 02CEFAF9-F10C-43E8-BD14-D90833B4DB71
    com.apple.quicktime.player.movie.audio.m : (Binary)
    Видео
    Идентификатор : 6
    Формат : ProRes
    Версия формата : Version 0
    Профиль формата : High
    Идентификатор кодека : apch
    Продолжительность : 4 м. 27 с.
    Вид битрейта : Переменный
    Битрейт : 174 Мбит/сек
    Ширина : 1888 пикселей
    Ширина оригинала : 1920 пикселей
    Высота : 1062 пикселя
    Высота оригинала : 1080 пикселей
    Соотношение сторон : 16:9
    Режим частоты кадров : Постоянный
    Частота кадров : 25,000 кадров/сек
    Цветовое пространство : YUV
    Субдискретизация насыщенности : 4:2:2
    Тип развёртки : Чересстрочная
    Тип развёртки в оригинале : Прогрессивная
    Порядок развёртки : Верхнее поле первое
    Бит/(Пиксели*Кадры) : 3.464
    Размер потока : 5,40 Гбайт (99%)
    Библиотека кодирования : Apple
    Язык : English
    Дата кодирования : UTC 2013-04-15 09:26:12
    Дата пометки : UTC 2013-04-15 09:28:35
    Основные цвета : BT.709
    Характеристики трансфера : BT.709
    Коэффициенты матрицы : BT.709
    matrix_coefficients_Original : BT.709
    Аудио
    Идентификатор : 4
    Формат : PCM
    Параметр Endianness формата : Little
    Параметр Sign формата : Unsigned
    Идентификатор кодека : in24
    Продолжительность : 4 м. 27 с.
    Продолжительность оригинала : 4 м. 27 с.
    Вид битрейта : Постоянный
    Битрейт : 2304 Кбит/сек
    Каналы : 2 канала
    Расположение каналов : Front: L R
    Частота : 48,0 КГц
    Битовая глубина : 24 бит
    Размер потока : 73,3 Мбайт (1%)
    Размер потока оригинала : 73,4 Мбайт (1%)
    Язык : English
    Дата кодирования : UTC 2013-04-15 09:11:45
    Дата пометки : UTC 2013-04-15 09:28:35
    Прочее
    Идентификатор : 7
    Тип : Time code
    Формат : QuickTime TC
    Продолжительность : 4 м. 27 с.
    Временной код первого кадра : 01:00:00:00
    TimeCode_Striped/String : Да
    Заголовок : 001
    Язык : English
    Дата кодирования : UTC 2013-04-15 09:26:12
    Дата пометки : UTC 2013-04-15 09:26:12

    Release was prepared by 60 - fps



You cannot post new topics in this forum
You cannot reply to topics in this forum
You cannot edit your posts in this forum
You cannot delete your posts in this forum
You cannot vote in polls in this forum
You cannot attach files in this forum
You cannot download files in this forum