LOBODA - Парень (2018) WEBRip 1080p | 60 fps Alice Merton - No Roots (2017) WEBRip 1080p | 60 fps Schiller: Zeitreise Live (2016) BDRip 720p | 60fps Jennifer Lopez - I'm Into You ft. Lil Wayne (2011) Full HD 1080p | 60 fps Snoop Dogg - Wet (2011) Full HD 1080p | 60 fps Katy Perry - Bon Appétit ft. Migos (2017) Full HD 1080p | 60 fps Dan Balan - Chica Bomb (2010) WEBRip 1080p | 60 fps Serebro - В Космосе (2017) Full HD 1080p | 60 fps
  1. Стаж:
    3 года 6 месяцев
    Сообщений:
    2283
    Пол:
    Мужской
    -Britney Spears - Hold It Against Me (2011) Full HD 1080p | 60 fps- -Информация о Клипе
    Исполнитель: Britney Spears
    Название: Hold It Against Me
    Год выхода: 2011
    Продолжительность: 00:04:27-Файл
    Кодек: MPEG4/ISO/AVC/ H.264
    Формат: MKV
    Качество: MasterRip 1080p
    Видео: 1920 x 1080 (1.778) at 60.000 fps 29.0 Мбит/сек
    Аудио 1: AC-3 | 640 Кбит/сек | 48.0 KHz | 2.0 channels
    Аудио 2: DTS | 1413 Кбит/сек | 48.0 KHz | 2.0 channels

    MI

    Видео
    Идентификатор : 1
    Формат : AVC
    Формат/Информация : Advanced Video Codec
    Профиль формата : Main@L4.2
    Параметр CABAC формата : Да
    Параметр ReFrames формата : 3 кадра
    Идентификатор кодека : V_MPEG4/ISO/AVC
    Продолжительность : 4 м. 27 с.
    Битрейт : 29,0 Мбит/сек
    Ширина : 1920 пикселей
    Высота : 1080 пикселей
    Соотношение сторон : 16:9
    Режим частоты кадров : Постоянный
    Частота кадров : 60,000 кадров/сек
    Стандарт вещания : PAL
    Цветовое пространство : YUV
    Субдискретизация насыщенности : 4:2:0
    Битовая глубина : 8 бит
    Тип развёртки : Прогрессивная
    Бит/(Пиксели*Кадры) : 0.233
    Размер потока : 923 Мбайт (92%)
    Заголовок : www.60-fps.org
    Язык : English
    Default : Да
    Forced : Нет
    Основные цвета : BT.709
    Характеристики трансфера : BT.709
    Коэффициенты матрицы : BT.709
    colour_range : Limited
    Аудио #1
    Идентификатор : 2
    Формат : AC-3
    Формат/Информация : Audio Coding 3
    Расширение режима : CM (complete main)
    Параметр Endianness формата : Big
    Идентификатор кодека : A_AC3
    Продолжительность : 4 м. 27 с.
    Вид битрейта : Постоянный
    Битрейт : 640 Кбит/сек
    Каналы : 2 канала
    Расположение каналов : Front: L R
    Частота : 48,0 КГц
    Битовая глубина : 16 бит
    Метод сжатия : С потерями
    Размер потока : 20,4 Мбайт (2%)
    Заголовок : AC3
    Язык : English
    Default : Да
    Forced : Нет
    DURATION : 00:04:27.126000000
    NUMBER_OF_FRAMES : 25043
    NUMBER_OF_BYTES : 47181012
    _STATISTICS_WRITING_APP : mkvmerge v7.6.0 ('Garden of Dreams') 32bit built on Feb 8 2015 12:51:39
    _STATISTICS_WRITING_DATE_UTC : 2015-06-22 17:35:45
    _STATISTICS_TAGS : BPS DURATION NUMBER_OF_FRAMES NUMBER_OF_BYTES
    Аудио #2
    Идентификатор : 3
    Формат : DTS
    Формат/Информация : Digital Theater Systems
    Режим : 16
    Параметр Endianness формата : Big
    Идентификатор кодека : A_DTS
    Продолжительность : 4 м. 27 с.
    Вид битрейта : Постоянный
    Битрейт : 1413 Кбит/сек
    Каналы : 2 канала
    Расположение каналов : Front: L R
    Частота : 48,0 КГц
    Битовая глубина : 16 бит
    Метод сжатия : С потерями
    Задержка видео : 80 мс.
    Размер потока : 45,0 Мбайт (4%)
    Заголовок : DTS
    Язык : English
    Default : Нет
    Forced : Нет

    Релиз подготовлен 60 - fps



    Последний раз редактировалось: Kryl (2015-09-07 09:47), всего редактировалось 1 раз
  2. Стаж:
    2 года 7 месяцев
    Сообщений:
    23
    Пол:
    Женский
    Дайте, пожалуйста, раздачу!
    07-Сен-2015 00:16 (спустя 2 месяца 14 дней)
  3. Стаж:
    2 года 7 месяцев
    Сообщений:
    23
    Пол:
    Женский
    Спасибо!!!
    07-Сен-2015 12:06 (спустя 11 часов)


Вы не можете начинать темы
Вы не можете отвечать на сообщения
Вы не можете редактировать свои сообщения
Вы не можете удалять свои сообщения
Вы не можете голосовать в опросах
Вы не можете прикреплять файлы к сообщениям
Вы не можете скачивать файлы