[Цитировать]
BOT2

Бригада: НаследникГод выпуска: 2012
Страна: Россия
Жанр: боевик, криминал
Продолжительность: 01:46:11
Перевод: Не требуется-Режиссер: Денис Алексеев-В ролях: Иван Макаревич (Иван), Екатерина Гусева (Ольга Белова), Кирилл Нагиев (Фил), Владислав Демин (Кирилл), Александр Иншаков (Александр Иванович), Анна Попова (Лера), Валерий Золотухин (Швед), Игорь Жижикин (Игорь Введенский), Юрий Чурсин (Бессо), Наталия Гуслистая (Келли Ольсен), Алексей Петрухин (авторитет), Светлана Фролова (Гуля)-Описание:
Фильм является идейным продолжением жизни героев телесериала «Бригада». Однако акцент смещен в историю сына Александра Белова - Ивана. Это Кино о современной России. О том, что у всех на устах: политике, коррупции, цинизме крупного бизнеса и спецслужб. О новом поколении, которое, узнав правду о нечистом бизнесе родителей, не идет по их стопам, а выбирает новый путь. Для них дороги понятия чести, любви и Родины. Герой, комфортно живший за границей, тем не менее, выбирает Россию (в отличие от сериала) и остается жить в ней, надеясь привнести эти идеалы в жизнь своих близких и страны в целом.-Рейтинг
-Качество: BDRip 720p
Формат: MKV
Видео кодек: AVC
Аудио кодек: AC3
Видео: AVC, 1280x544 (2.35:1), 6287 kbps, 59,997 fps, 0,150 bpp
Аудио: AC3 / 5.1 / 48 kHz / 640 kbps / 16 bit- -

MI

General
Unique ID : 211381644295395315290890830248632546786 (0x9F069FB4416B4E1082ADB9927E1275E2)
Complete name : E:\Кодировка\Раздача\Бригада 2 60fps.mkv
Format : Matroska
Format version : Version 4 / Version 2
File size : 5.14 GiB
Duration : 1h 46mn
Overall bit rate : 6 926 Kbps
Movie name : HDCLUB present "Brigada 2 (2012)"
Encoded date : UTC 2015-07-08 14:13:51
Writing application : mkvmerge v7.0.0 ('Where We Going') 64bit built on Jun 9 2014 15:16:27
Writing library : libebml v1.3.0 + libmatroska v1.4.1
DURATION : 01:46:11.744000000
NUMBER_OF_FRAMES : 199117
NUMBER_OF_BYTES : 509739520
_STATISTICS_WRITING_APP : mkvmerge v7.0.0 ('Where We Going') 64bit built on Jun 9 2014 15:16:27
_STATISTICS_WRITING_DATE_UTC : 2015-07-08 14:13:51
_STATISTICS_TAGS : BPS DURATION NUMBER_OF_FRAMES NUMBER_OF_BYTES
Video
ID : 1
Format : AVC
Format/Info : Advanced Video Codec
Format profile : High@L4.1
Format settings, CABAC : Yes
Format settings, ReFrames : 9 frames
Codec ID : V_MPEG4/ISO/AVC
Duration : 1h 46mn
Bit rate : 6 287 Kbps
Width : 1 280 pixels
Height : 544 pixels
Display aspect ratio : 2.35:1
Frame rate : 59.997 fps
Color space : YUV
Chroma subsampling : 4:2:0
Bit depth : 8 bits
Scan type : Progressive
Bits/(Pixel*Frame) : 0.150
Stream size : 4.56 GiB (89%)
Writing library : x264 core 146 r2538 121396c
Encoding settings : cabac=1 / ref=9 / deblock=1:0:0 / analyse=0x3:0 / me=umh / subme=9 / psy=1 / psy_rd=1.00:0.10 / mixed_ref=1 / me_range=42 / chroma_me=0 / trellis=2 / 8x8dct=1 / cqm=0 / deadzone=21,11 / fast_pskip=0 / chroma_qp_offset=-3 / threads=12 / lookahead_threads=3 / sliced_threads=0 / nr=0 / decimate=0 / interlaced=0 / bluray_compat=0 / constrained_intra=0 / bframes=16 / b_pyramid=2 / b_adapt=2 / b_bias=0 / direct=3 / weightb=1 / open_gop=0 / weightp=2 / keyint=250 / keyint_min=25 / scenecut=40 / intra_refresh=0 / rc=2pass / mbtree=0 / bitrate=6287 / ratetol=1.0 / qcomp=0.60 / qpmin=0 / qpmax=69 / qpstep=4 / cplxblur=20.0 / qblur=0.5 / ip_ratio=1.40 / pb_ratio=1.30 / aq=1:0.90
Language : English
Default : Yes
Forced : No
DURATION : 01:46:11.952000000
NUMBER_OF_FRAMES : 382298
NUMBER_OF_BYTES : 5003661963
_STATISTICS_WRITING_APP : mkvmerge v7.0.0 ('Where We Going') 64bit built on Jun 9 2014 15:16:27
_STATISTICS_WRITING_DATE_UTC : 2015-07-08 14:13:51
_STATISTICS_TAGS : BPS DURATION NUMBER_OF_FRAMES NUMBER_OF_BYTES
Audio
ID : 2
Format : AC-3
Format/Info : Audio Coding 3
Mode extension : CM (complete main)
Codec ID : A_AC3
Duration : 1h 46mn
Bit rate mode : Constant
Bit rate : 640 Kbps
Channel(s) : 6 channels
Channel positions : Front: L C R, Side: L R, LFE
Sampling rate : 48.0 KHz
Bit depth : 16 bits
Compression mode : Lossy
Stream size : 486 MiB (9%)
Default : Yes
Forced : No

Скриншоты

[60-fps.org].t862.torrent
Торрент: Зарегистрирован [ 2015-07-08 18:02 ] · 5CD179ECE99285A20ACB65F42D7BB68ABDB2B1B1

Скачать .torrent

Скачать

13 KB

Статус: проверено
Скачан: 1 раз
Поблагодарили:
Размер: 5,14 GB
 


Последний раз редактировалось: BOT2 (2015-07-08 18:39), всего редактировалось 1 раз

[Цитировать]
ZHz

что не так с названием было?

[Цитировать]
BOT2

Незнаю

[Цитировать]
Kryl

BDRip
было
BD - Rip

[Цитировать]
Павел

Народ где раздача?

[Цитировать]
Kryl

6319Народ где раздача?
Полного источника не было: 11 месяцев 26 дней
 
Показать сообщения:    

Текущее время: 25-Фев 18:53

Часовой пояс: UTC + 3


Вы не можете начинать темы
Вы не можете отвечать на сообщения
Вы не можете редактировать свои сообщения
Вы не можете удалять свои сообщения
Вы не можете голосовать в опросах
Вы не можете прикреплять файлы к сообщениям
Вы можете скачивать файлы