[Цитировать]
Kryl

Брат (1997) HDDVDRip 720p | 60fps-- Информация о фильме
Название: Брат
Год выхода: 1997
Жанр: [боевик, драма, криминал, музыка, ...
Режиссер: Алексей Балабанов
Сценарий: Алексей Балабанов
В ролях:
Сергей Бодров мл., Виктор Сухоруков, Светлана Письмиченко, Мария Жукова, Юрий Кузнецов, Вячеслав Бутусов, Ирина Ракшина, Сергей Мурзин, Анатолий Журавлев, Игорь Шибанов, Андрей Федорцов, Сергей Дебижев
----О фильме:
Демобилизованный из армии, Данила Багров вернулся в родной городок. Но скучная жизнь российской провинции не устраивала его, и он решился податься в Петербург, где, по слухам, уже несколько лет процветает его старший брат. Данила нашел брата. Но все оказалось не так просто — брат был наемным убийцей…- - Страна: Россия
Продолжительность: 01:39:36
--Файл
Кодек: MPEG4/ISO/AVC H.264
Формат: MKV
Качество: HDDVD 720p
Видео:
1280 x 720 (1.778) | 59.880 fps | 10.0 Мбит/сек-- Аудио : AC3 | 5.1 | 48 kHz | 384 kbps | 16 bit

MedifInfo

Видео
Идентификатор : 1
Формат : AVC
Формат/Информация : Advanced Video Codec
Профиль формата : High@L4.1
Параметр CABAC формата : Да
Параметр ReFrames формата : 8 кадров
Идентификатор кодека : V_MPEG4/ISO/AVC
Продолжительность : 1 ч. 39 м.
Битрейт : 9999 Кбит/сек
Ширина : 1280 пикселей
Высота : 720 пикселей
Соотношение сторон : 16:9
Режим частоты кадров : Постоянный
Частота кадров : 59,880 кадров/сек
Частота кадров в оригинале : 59,940 кадров/сек
Цветовое пространство : YUV
Субдискретизация насыщенности : 4:2:0
Битовая глубина : 8 бит
Тип развёртки : Прогрессивная
Бит/(Пиксели*Кадры) : 0.181
Размер потока : 6,82 Гбайт (94%)
Заголовок : www.60-fps.org
Библиотека кодирования : x264 core 129 r2245 bc13772
Настройки программы : cabac=1 / ref=8 / deblock=1:-3:-3 / analyse=0x3:0x133 / me=esa / subme=9 / psy=1 / psy_rd=1.00:0.25 / mixed_ref=1 / me_range=32 / chroma_me=1 / trellis=2 / 8x8dct=1 / cqm=0 / deadzone=6,6 / fast_pskip=1 / chroma_qp_offset=-4 / threads=12 / lookahead_threads=2 / sliced_threads=0 / nr=0 / decimate=0 / interlaced=0 / bluray_compat=0 / constrained_intra=0 / bframes=4 / b_pyramid=2 / b_adapt=2 / b_bias=0 / direct=3 / weightb=1 / open_gop=0 / weightp=2 / keyint=599 / keyint_min=59 / scenecut=40 / intra_refresh=0 / rc_lookahead=60 / rc=2pass / mbtree=1 / bitrate=9999 / ratetol=1.0 / qcomp=0.80 / qpmin=0 / qpmax=69 / qpstep=4 / cplxblur=19.0 / qblur=0.0 / ip_ratio=1.10 / aq=1:0.50
Язык : English
Default : Нет
Forced : Нет
Аудио
Идентификатор : 2
Формат : AC-3
Формат/Информация : Audio Coding 3
Расширение режима : CM (complete main)
Параметр Endianness формата : Big
Идентификатор кодека : A_AC3
Продолжительность : 1 ч. 39 м.
Вид битрейта : Постоянный
Битрейт : 384 Кбит/сек
Каналы : 6 каналов
Расположение каналов : Front: L C R, Side: L R, LFE
Частота : 48,0 КГц
Битовая глубина : 16 бит
Метод сжатия : С потерями
Размер потока : 274 Мбайт (4%)
Заголовок : www.60-fps.org
Default : Да
Forced : Нет

Релиз подготовлен 60 - fps



Последний раз редактировалось: Kryl (2015-02-03 07:31), всего редактировалось 1 раз

[Цитировать]
Fragrance

Хм , первый в 720 р из нашего кино).

[Цитировать]
Kryl

1725Хм , первый в 720 р из нашего кино).
Да ..там исходник такой что фулку смысла не было делать ...

[Цитировать]
VinceRage

вторая часть будет?

[Цитировать]
Kryl

1744вторая часть будет?
наверное ....

[Цитировать]
VinceRage

1745
1744вторая часть будет?
наверное ....
ну что за неопределенность) жду)

[Цитировать]
Kryl

Исходника HD не найти :ac:

[Цитировать]
vic21032

Вот это и есть золотая классика.ждем 2-ю часть.

[Цитировать]
ekuprienko

Что с раздачей, где сиды?
 
Показать сообщения:    

Текущее время: 28-Май 00:09

Часовой пояс: UTC + 3


Вы не можете начинать темы
Вы не можете отвечать на сообщения
Вы не можете редактировать свои сообщения
Вы не можете удалять свои сообщения
Вы не можете голосовать в опросах
Вы не можете прикреплять файлы к сообщениям
Вы не можете скачивать файлы