1. Longevity:
    5 years 1 month
    Posts:
    1675
    Gender:
    Male
    Фильм «И с той поры жили они счастливо» Фильм- Информация
    Название: Братья Гримм
    Оригинальное название: The Brothers Grimm
    Год выхода: 2005
    Жанр: фэнтези, боевик, триллер, комедия, приключения
    Режиссер: Терри Гиллиам
    Сценарий: Эрен Крюгер
    Продюсер: Дэниэл Бобкер, Чарльз Ровен, Мишель Чейко /color]
    В ролях: Мэтт Дэймон,Хит Леджер,Лина Хиди,Петер Стормаре,Моника Беллуччи,Джонатан Прайс,Макензи Крук,Анна Руст,Марика Сара Прохазкова,Ричард Райдингс
    --Сюжет:
    Давным-давно, жили-были два брата-авантюриста Уилл и Якоб Гримм, которые впоследствии стали знаменитыми сказочниками. Но до того они путешествовали по деревушкам, занимаясь собиранием фольклора и «прогоняя нечисть» за деньги… Приезжали в деревню, убеждали жителей, что на их мельнице поселилась ведьма, а потом — за вознаграждение — успешно «изгоняли» ее. В следующем селе это был тролль под мостом и так далее.
    Но однажды слава об «экзорцистах» дошла до наполеоновских властей, которые приказали братьям расследовать серию загадочных исчезновений юных девушек в лесу на границе Франции и Германии. Тут-то наши герои и сталкиваются нос к носу с настоящей нечистью — злой колдуньей… Уиллу и Якобу придется проявить все свои незаурядные способности, ведь в случае неудачи горе-детективов ждет гильотина…
    -- Страна: США, Чехия, Великобритания
    Продолжительность: 01:58:28

    Файл
    Кодек: MPEG4/ISO/AVC H.264
    Формат: MKV
    Качество: BDRip 1080p | 60 fps
    Видео: 1920 x 1080 (1.778) | 59.940 fps | 30,0 Мбит/сек
    Аудио 1: AC3 | 5.1 | 48 kHz | 640 kbps | 16 bit | Дубляж
    Субтитры: НЕТ

    MedifInfo

    Видео
    Идентификатор : 1
    Формат : AVC
    Формат/Информация : Advanced Video Codec
    Профиль формата : [email protected]
    Параметр CABAC формата : Да
    Параметр ReFrames формата : 4 кадра
    Идентификатор кодека : V_MPEG4/ISO/AVC
    Продолжительность : 1 ч. 58 м.
    Битрейт : 30,0 Мбит/сек
    Ширина : 1920 пикселей
    Высота : 1080 пикселей
    Соотношение сторон : 16:9
    Режим частоты кадров : Постоянный
    Частота кадров : 59,940 (60000/1001) кадров/сек
    Цветовое пространство : YUV
    Субдискретизация насыщенности : 4:2:0
    Битовая глубина : 8 бит
    Тип развёртки : Прогрессивная
    Бит/(Пиксели*Кадры) : 0.242
    Размер потока : 24,3 Гбайт (96%)
    Библиотека кодирования : x264 core 130 r2273 b3065e6
    Настройки программы : cabac=1 / ref=4 / deblock=1:-3:-3 / analyse=0x3:0x133 / me=esa / subme=10 / psy=1 / psy_rd=1.00:0.00 / mixed_ref=1 / me_range=32 / chroma_me=1 / trellis=2 / 8x8dct=1 / cqm=0 / deadzone=21,11 / fast_pskip=1 / chroma_qp_offset=-2 / threads=12 / lookahead_threads=2 / sliced_threads=0 / nr=0 / decimate=1 / interlaced=0 / bluray_compat=0 / constrained_intra=0 / bframes=8 / b_pyramid=2 / b_adapt=2 / b_bias=0 / direct=3 / weightb=1 / open_gop=0 / weightp=2 / keyint=599 / keyint_min=59 / scenecut=40 / intra_refresh=0 / rc_lookahead=60 / rc=2pass / mbtree=1 / bitrate=30017 / ratetol=1.0 / qcomp=0.60 / qpmin=0 / qpmax=69 / qpstep=4 / cplxblur=20.0 / qblur=0.5 / vbv_maxrate=62500 / vbv_bufsize=78125 / nal_hrd=none / ip_ratio=1.40 / aq=1:1.00
    Язык : English
    Default : Нет
    Forced : Нет
    Аудио
    Идентификатор : 2
    Формат : AC-3
    Формат/Информация : Audio Coding 3
    Расширение режима : CM (complete main)
    Параметр Endianness формата : Big
    Идентификатор кодека : A_AC3
    Продолжительность : 1 ч. 58 м.
    Вид битрейта : Постоянный
    Битрейт : 640 Кбит/сек
    Каналы : 6 каналов
    Расположение каналов : Front: L C R, Side: L R, LFE
    Частота : 48,0 КГц
    Частота кадров : 31,250 кадров/сек (1536 spf)
    Метод сжатия : С потерями
    Размер потока : 542 Мбайт (2%)
    Default : Да
    Forced : Нет


You cannot post new topics in this forum
You cannot reply to topics in this forum
You cannot edit your posts in this forum
You cannot delete your posts in this forum
You cannot vote in polls in this forum
You cannot attach files in this forum
You cannot download files in this forum