1. Longevity:
    7 years
    Posts:
    2413
    Gender:
    Male
    «You have never seen it before! A New torrent of emotions! A New Triumph of Film-Making from EMbassy Pictures who brought you 'Divorce Italian Style' and 'Yesterday, Today and Tomorrow' now brings you...»- Информация
    Название: Брак по-итальянски
    Оригинальное название: Matrimonio all'italiana
    Год выхода: 1964
    Жанр: драма, мелодрама, комедия
    Режиссер: Витторио Де Сика
    Сценарий: Ренато Кастеллани, Тонино Гуэрра, Леонардо Бенвенути
    Продюсер: Карло Понти, Джозеф Э. Ливайн
    В ролях: Софи Лорен, Марчелло Мастроянни, Альдо Пульизи, Текла Скарано, Марилу Толо, Джанни Ридольфи, Дженеросо Кортини, Вито Мориконе, Рита Пиччоне, Лино Маттера
    --Сюжет:
    Нелегкая судьба Филумены Мартурано, героини одноименной пьесы Эдуардо де Филиппо, была близка всем советским женщинам. Ну а жизненным проблемам и устремлениям Доменико сочувствовали все мужчины. Нужда приводит юную Филумену в публичный дом, где она и знакомится с любвеобильным красавцем Доменико.
    Спустя годы они встречаются вновь и она становится хозяйкой в его доме, но несмотря на их многолетнюю связь, он постоянно отказывается официально оформить их отношения. И вот наступил критический момент — убежденный холостяк Доменико решает жениться… на одной из своих многочисленных пассий. У любящей его Филумены остается последнее средство…
    - Страна: Италия, Франция
    Продолжительность: 01:41:34

    Файл
    Кодек: MPEG4/ISO/AVC H.264
    Формат: MKV
    Качество: BDRip 720p | 60 fps
    Видео: 1280 x 680 (1.882) | 59.940 fps | 10.0 Мбит/сек
    Аудио: AC3 | 2.0 | 48 kHz | 192 kbps | 16 bit | Советский Дубляж |

    MedifInfo

    Видео
    Идентификатор : 1
    Формат : AVC
    Формат/Информация : Advanced Video Codec
    Профиль формата : [email protected]
    Параметр CABAC формата : Да
    Параметр ReFrames формата : 5 кадров
    Идентификатор кодека : V_MPEG4/ISO/AVC
    Продолжительность : 1 ч. 41 м.
    Битрейт : 9999 Кбит/сек
    Ширина : 1280 пикселей
    Высота : 680 пикселей
    Соотношение сторон : 1,882
    Режим частоты кадров : Постоянный
    Частота кадров : 59,880 кадров/сек
    Частота кадров в оригинале : 59,940 кадров/сек
    Цветовое пространство : YUV
    Субдискретизация насыщенности : 4:2:0
    Битовая глубина : 8 бит
    Тип развёртки : Прогрессивная
    Бит/(Пиксели*Кадры) : 0.192
    Размер потока : 6,95 Гбайт (96%)
    Заголовок : www,60-fps.org
    Библиотека кодирования : x264 core 148 r2638 7599210
    Настройки программы : cabac=1 / ref=5 / deblock=1:-3:-3 / analyse=0x3:0x113 / me=umh / subme=8 / psy=1 / psy_rd=1.00:0.25 / mixed_ref=1 / me_range=32 / chroma_me=1 / trellis=1 / 8x8dct=1 / cqm=0 / deadzone=6,6 / fast_pskip=1 / chroma_qp_offset=-4 / threads=12 / lookahead_threads=2 / sliced_threads=0 / nr=0 / decimate=0 / interlaced=0 / bluray_compat=0 / constrained_intra=0 / bframes=3 / b_pyramid=2 / b_adapt=2 / b_bias=0 / direct=3 / weightb=1 / open_gop=0 / weightp=2 / keyint=599 / keyint_min=59 / scenecut=40 / intra_refresh=0 / rc_lookahead=50 / rc=2pass / mbtree=1 / bitrate=9999 / ratetol=1.0 / qcomp=0.80 / qpmin=0 / qpmax=69 / qpstep=4 / cplxblur=20.0 / qblur=0.5 / vbv_maxrate=62500 / vbv_bufsize=78125 / nal_hrd=none / filler=0 / ip_ratio=1.10 / aq=1:0.50
    Default : Да
    Forced : Нет
    Аудио
    Идентификатор : 2
    Формат : AC-3
    Формат/Информация : Audio Coding 3
    Расширение режима : CM (complete main)
    Параметр Endianness формата : Big
    Идентификатор кодека : A_AC3
    Продолжительность : 1 ч. 41 м.
    Вид битрейта : Постоянный
    Битрейт : 192 Кбит/сек
    Каналы : 2 канала
    Расположение каналов : Front: L R
    Частота : 48,0 КГц
    Битовая глубина : 16 бит
    Метод сжатия : С потерями
    Размер потока : 139 Мбайт (2%)
    Заголовок : Советский Дубляж
    Язык : Russian
    Default : Да
    Forced : Нет

    Release was prepared by 60-fps.org



You cannot post new topics in this forum
You cannot reply to topics in this forum
You cannot edit your posts in this forum
You cannot delete your posts in this forum
You cannot vote in polls in this forum
You cannot attach files in this forum
You cannot download files in this forum