1. Longevity:
    4 years 10 months
    Posts:
    336
    Gender:
    Male
    Заказать фильмы, клипы или любое другое видео в качестве 60fps может каждый!!!
    Стоимость одного видео 50руб. !!!
    Пишите Талямба в личку, всё обсудите...
    [kp]https://www.kinopoisk.ru/film/1045449/[/kp] [imdb]https://www.imdb.com/title/tt6932874/[/imdb] Босс-молокосос 2 / The Boss Baby: Family Business (2021) BDRemux 1080p | 60 fps Информация
    Название: Босс-молокосос 2
    Оригинальное название: The Boss Baby: Family Business
    Год выхода: 2021
    Жанр: Мультфильм, комедия, приключения, семейный
    Режиссер: Том МакГрат
    В ролях: Алек Болдуин, Эми Седарис, Джеймс Марсден, Джефф Голдблюм, Лиза Кудроу, Ева Лонгория, Джеймс МакГрат, Ариана Гринблатт, Джимми Киммел
    Страна: США
    Продолжительность: 1 ч. 47 м. 12 с.
    -- Сюжет:
    Братья Темплтон выросли и отдалились друг от друга. Но все меняется с появлением нового босса-молокососа с суперсовременным подходом, который воссоединяет семью и вдохновляет героев на новые бизнес-свершения. -- Файл
    Кодек: V_MPEG4/ISO/AVC
    Формат: MKV
    Качество: BDRemux 1080p | 60 fps
    Видео: 1920 x 800 (2,40:1) | 59.940 fps | 35.0 Мбит/сек
    Аудио 1: 48 kHz, E-AC3, 5.1, 448 Kbps | Дублированный | Пифагор |
    Аудио 2: 48 kHz, AC3, 5.1, 448 Kbps | Дублированный | Пифагор |
    Аудио 3: 48 kHz, TrueHD, 7.1, 3200 Kbps | Оригинал |

    Аудио 4: 48 kHz, AC3, 5.1, 448 Kbps | Оригинал |

    MedifInfo

    Общее
    Уникальный идентификатор : 221363983502459589883461692517684369708 (0xA68927068B96D60EB19A1CC9FF14592C)
    Полное имя : D:\Mult\Босс-молокосос 2 (2021).mkv
    Формат : Matroska
    Версия формата : Version 2
    Размер файла : 29,6 Гбайт
    Продолжительность : 1 ч. 47 м.
    Режим общего битрейта : Переменный
    Общий поток : 39,5 Мбит/сек
    Название фильма : Босс-молокосос 2
    Дата кодирования : UTC 2021-10-15 16:53:24
    Программа кодирования : mkvmerge v5.8.0 ('No Sleep / Pillow') built on Sep 2 2012 15:37:04
    Библиотека кодирования : libebml v1.2.3 + libmatroska v1.3.0
    Attachments : Poster.jpg
    Видео
    Идентификатор : 1
    Формат : AVC
    Формат/Информация : Advanced Video Codec
    Профиль формата : High@L4.1
    Параметр CABAC формата : Да
    Параметр ReFrames формата : 5 кадров
    Режим смешивания : Header stripping
    Идентификатор кодека : V_MPEG4/ISO/AVC
    Продолжительность : 1 ч. 47 м.
    Номинальный битрейт : 35,0 Мбит/сек
    Ширина : 1920 пикселей
    Высота : 800 пикселей
    Соотношение сторон : 2,40:1
    Режим частоты кадров : Постоянный
    Частота кадров : 59,940 (60000/1001) кадров/сек
    Цветовое пространство : YUV
    Субдискретизация насыщенности : 4:2:0
    Битовая глубина : 8 бит
    Тип развёртки : Прогрессивная
    Бит/(Пиксели*Кадры) : 0.380
    Библиотека кодирования : x264 core 146 r2538 121396c
    Настройки программы : cabac=1 / ref=5 / deblock=1:0:0 / analyse=0x3:0x113 / me=umh / subme=8 / psy=1 / psy_rd=1.00:0.25 / mixed_ref=1 / me_range=32 / chroma_me=1 / trellis=1 / 8x8dct=1 / cqm=0 / deadzone=6,6 / fast_pskip=1 / chroma_qp_offset=-4 / threads=12 / lookahead_threads=3 / sliced_threads=0 / nr=0 / decimate=0 / interlaced=0 / bluray_compat=0 / constrained_intra=0 / bframes=3 / b_pyramid=2 / b_adapt=2 / b_bias=0 / direct=3 / weightb=1 / open_gop=0 / weightp=2 / keyint=600 / keyint_min=60 / scenecut=40 / intra_refresh=0 / rc_lookahead=50 / rc=2pass / mbtree=1 / bitrate=35000 / ratetol=1.0 / qcomp=0.80 / qpmin=0 / qpmax=69 / qpstep=4 / cplxblur=20.0 / qblur=0.5 / vbv_maxrate=50000 / vbv_bufsize=50000 / nal_hrd=none / filler=0 / ip_ratio=1.10 / aq=1:0.50
    Язык : English
    Default : Да
    Forced : Нет
    Аудио #1
    Идентификатор : 2
    Формат : E-AC-3
    Формат/Информация : Enhanced Audio Coding 3
    Параметр Endianness формата : Big
    Режим смешивания : Header stripping
    Идентификатор кодека : A_EAC3
    Продолжительность : 1 ч. 47 м.
    Вид битрейта : Постоянный
    Битрейт : 448 Кбит/сек
    Каналы : 6 каналов
    Расположение каналов : Front: L C R, Side: L R, LFE
    Частота : 48,0 КГц
    Частота кадров : 187,500 кадров/сек (256 spf)
    Метод сжатия : С потерями
    Размер потока : 344 Мбайт (1%)
    Заголовок : Dub
    Язык : Russian
    Default : Да
    Forced : Да
    Statistics Tags Issue : mkvmerge v59.0.0 ('Shining Star') 64-bit 2021-10-13 21:39:08 / mkvmerge v5.8.0 ('No Sleep / Pillow') built on Sep 2 2012 15:37:04 2021-10-15 16:53:24
    FromStats_BitRate : 448000
    FromStats_Duration : 01:47:16.832000000
    FromStats_FrameCount : 201151
    FromStats_StreamSize : 360462592
    Аудио #2
    Идентификатор : 3
    Формат : AC-3
    Формат/Информация : Audio Coding 3
    Расширение режима : CM (complete main)
    Параметр Endianness формата : Big
    Режим смешивания : Header stripping
    Идентификатор кодека : A_AC3
    Продолжительность : 1 ч. 47 м.
    Вид битрейта : Постоянный
    Битрейт : 448 Кбит/сек
    Каналы : 6 каналов
    Расположение каналов : Front: L C R, Side: L R, LFE
    Частота : 48,0 КГц
    Частота кадров : 31,250 кадров/сек (1536 spf)
    Битовая глубина : 16 бит
    Метод сжатия : С потерями
    Размер потока : 344 Мбайт (1%)
    Заголовок : Dub
    Язык : Russian
    Default : Нет
    Forced : Нет
    Statistics Tags Issue : mkvmerge v59.0.0 ('Shining Star') 64-bit 2021-10-13 21:39:08 / mkvmerge v5.8.0 ('No Sleep / Pillow') built on Sep 2 2012 15:37:04 2021-10-15 16:53:24
    FromStats_BitRate : 448000
    FromStats_Duration : 01:47:16.768000000
    FromStats_FrameCount : 201149
    FromStats_StreamSize : 360459008
    Аудио #3
    Идентификатор : 4
    Формат : Atmos / TrueHD
    Идентификатор кодека : A_TRUEHD
    Вид битрейта : Переменный
    Максимальный битрейт : 5106 Кбит/сек
    Каналы : Object Based / 8 каналов
    Расположение каналов : Object Based / Front: L C R, Side: L R, Back: L R, LFE
    Частота : / 48,0 КГц
    Частота кадров : 1200,000 кадров/сек (40 spf)
    Битовая глубина : 24 бит
    Метод сжатия : Без потерь
    Заголовок : Original
    Язык : English
    Default : Нет
    Forced : Нет
    Аудио #4
    Идентификатор : 5
    Формат : AC-3
    Формат/Информация : Audio Coding 3
    Расширение режима : CM (complete main)
    Параметр Endianness формата : Big
    Режим смешивания : Header stripping
    Идентификатор кодека : A_AC3
    Продолжительность : 1 ч. 47 м.
    Вид битрейта : Постоянный
    Битрейт : 448 Кбит/сек
    Каналы : 6 каналов
    Расположение каналов : Front: L C R, Side: L R, LFE
    Частота : 48,0 КГц
    Частота кадров : 31,250 кадров/сек (1536 spf)
    Битовая глубина : 16 бит
    Метод сжатия : С потерями
    Размер потока : 344 Мбайт (1%)
    Язык : English
    Default : Нет
    Forced : Нет
    Statistics Tags Issue : mkvmerge v59.0.0 ('Shining Star') 64-bit 2021-10-13 21:39:08 / mkvmerge v5.8.0 ('No Sleep / Pillow') built on Sep 2 2012 15:37:04 2021-10-15 16:53:24
    FromStats_BitRate : 448000
    FromStats_Duration : 01:47:12.736000000
    FromStats_FrameCount : 201023
    FromStats_StreamSize : 360233216
    FromStats_OriginalSourceMedium_ID : 001100
    Текст #1
    Идентификатор : 6
    Формат : UTF-8
    Идентификатор кодека : S_TEXT/UTF8
    Идентификатор кодека/Информация : UTF-8 Plain Text
    Заголовок : Full v.1
    Язык : Russian
    Default : Нет
    Forced : Нет
    Statistics Tags Issue : mkvmerge v59.0.0 ('Shining Star') 64-bit 2021-10-13 21:39:08 / mkvmerge v5.8.0 ('No Sleep / Pillow') built on Sep 2 2012 15:37:04 2021-10-15 16:53:24
    FromStats_BitRate : 131
    FromStats_Duration : 01:38:08.584000000
    FromStats_FrameCount : 1815
    FromStats_StreamSize : 97146
    Текст #2
    Идентификатор : 7
    Формат : UTF-8
    Идентификатор кодека : S_TEXT/UTF8
    Идентификатор кодека/Информация : UTF-8 Plain Text
    Заголовок : Full v.2
    Язык : Russian
    Default : Нет
    Forced : Нет
    Statistics Tags Issue : mkvmerge v59.0.0 ('Shining Star') 64-bit 2021-10-13 21:39:08 / mkvmerge v5.8.0 ('No Sleep / Pillow') built on Sep 2 2012 15:37:04 2021-10-15 16:53:24
    FromStats_BitRate : 129
    FromStats_Duration : 01:37:26.251000000
    FromStats_FrameCount : 1945
    FromStats_StreamSize : 94775
    Текст #3
    Идентификатор : 8
    Формат : UTF-8
    Идентификатор кодека : S_TEXT/UTF8
    Идентификатор кодека/Информация : UTF-8 Plain Text
    Язык : English
    Default : Нет
    Forced : Нет
    Statistics Tags Issue : mkvmerge v59.0.0 ('Shining Star') 64-bit 2021-10-13 21:39:08 / mkvmerge v5.8.0 ('No Sleep / Pillow') built on Sep 2 2012 15:37:04 2021-10-15 16:53:24
    FromStats_BitRate : 83
    FromStats_Duration : 01:45:53.646000000
    FromStats_FrameCount : 2462
    FromStats_StreamSize : 66635
    Меню
    00:00:00.000 : en:Chapter 01
    00:04:18.383 : en:Chapter 02
    00:09:50.673 : en:Chapter 03
    00:13:43.364 : en:Chapter 04
    00:19:51.816 : en:Chapter 05
    00:24:55.119 : en:Chapter 06
    00:29:12.125 : en:Chapter 07
    00:34:22.018 : en:Chapter 08
    00:38:09.245 : en:Chapter 09
    00:44:36.299 : en:Chapter 10
    00:51:25.124 : en:Chapter 11
    01:00:47.853 : en:Chapter 12
    01:04:54.474 : en:Chapter 13
    01:08:08.209 : en:Chapter 14
    01:13:27.403 : en:Chapter 15
    01:18:38.172 : en:Chapter 16
    01:22:44.418 : en:Chapter 17
    01:27:13.437 : en:Chapter 18
    01:35:06.701 : en:Chapter 19
    01:38:13.721 : en:Chapter 20

    Release was prepared by 60-fps.org



You cannot post new topics in this forum
You cannot reply to topics in this forum
You cannot edit your posts in this forum
You cannot delete your posts in this forum
You cannot vote in polls in this forum
You cannot attach files in this forum
You cannot download files in this forum