[Цитировать]
Гость

-Название: Большой куш
Оригинальное название: Snatch.
Год выпуска: 2000
Страна: Великобритания, США
Жанр: комедия, криминал
Продолжительность: 01:42:46
Перевод: Профессиональный многоголосый
Субтитры: русские (Форсированные), русские (Полные), английские (Форсированные), английские (Полные)-Режиссер: Гай Ричи / Guy Ritchie-В ролях: Джейсон Стэйтем (Turkish), Брэд Питт (Mickey O'Neil), Бенисио Дель Торо (Franky Four Fingers), Стивен Грэм (Tommy), Алан Форд (Brick Top), Деннис Фарина (Cousin Avi), Раде Шербеджия (Boris the Blade), Винни Джонс (Bullet-Tooth Tony), Джейсон Флеминг (Darren), Майк Рейд (Doug the Head), Робби Ги (Vinny), Ленни Джеймс (Sol)-Описание:
Четырехпалый Френки должен был переправить краденый алмаз из Англии в США своему боссу Эви. Но вместо этого герой попадает в эпицентр больших неприятностей. Сделав ставку на подпольном боксерском поединке, Френки попадает в круговорот весьма нежелательных событий.
Вокруг героя и его груза разворачивается сложная интрига с участием множества колоритных персонажей лондонского дна - русского гангстера, троих незадачливых грабителей, хитрого боксера и угрюмого громилы грозного мафиози. Каждый норовит в одиночку сорвать Большой Куш.-Рейтинг

imdb.com: 8.30 (465 318)
MPAA: R - Лицам до 17 лет обязательно присутствие взрослого-Автор рипа:Tiberiumsun69
-Качество: BDRip 1080p / 60 FPS
Формат: MKV
Видео кодек: AVC
Аудио кодек:AC3
Видео: AVC, 1920x1040, 15913 kbps, 59,940 fps
Аудио №1: русский / AC3 / 5.1 / 48 kHz / 640 kbps / 16 bit |Многоголосый, закадровый BD CEE|
Аудио №2: русский / AC3 / 5.1 / 48 kHz / 448 kbps / 16 bit |Многоголосый, закадровый ОРТ|
Аудио №3: английский / AC3 / 5.1 / 48 kHz / 640 kbps / 16 bit
Навигация по главам: есть- -

Внимание!

Перед скачиванием обязательно проверьте сэмпл на своем оборудовании.

Благодарности

Raven за помощ при создании релиза и обложки

MI

General
Unique ID : 184927434466931195860848788732435337764 (0x8B1FBA75A918078A82A7A8FF20F99224)
Complete name : A:1080p 60fpsБольшой куш 1080p 60fps.mkv
Format : Matroska
Format version : Version 4 / Version 2
File size : 12.9 GiB
Duration : 1h 42mn
Overall bit rate : 18.0 Mbps
Encoded date : UTC 2014-09-22 14:33:27
Writing application : mkvmerge v6.9.1 ('Blue Panther') 64bit built on Apr 18 2014 18:23:38
Writing library : libebml v1.3.0 + libmatroska v1.4.1
Attachment : Yes
Video
ID : 1
Format : AVC
Format/Info : Advanced Video Codec
Format profile : High@L4.1
Format settings, CABAC : Yes
Format settings, ReFrames : 4 frames
Codec ID : V_MPEG4/ISO/AVC
Duration : 1h 42mn
Bit rate : 15.9 Mbps
Width : 1 920 pixels
Height : 1 040 pixels
Display aspect ratio : 16:9
Frame rate : 59.940 fps
Color space : YUV
Chroma subsampling : 4:2:0
Bit depth : 8 bits
Scan type : Progressive
Bits/(Pixel*Frame) : 0.133
Stream size : 11.4 GiB (88%)
Writing library : x264 core 133 r2334 a3ac64b
Encoding settings : cabac=1 / ref=4 / deblock=1:-1:-1 / analyse=0x3:0 / me=umh / subme=9 / psy=1 / psy_rd=1.00:0.10 / mixed_ref=1 / me_range=42 / chroma_me=0 / trellis=2 / 8x8dct=1 / cqm=0 / deadzone=21,11 / fast_pskip=0 / chroma_qp_offset=-3 / threads=12 / lookahead_threads=1 / sliced_threads=0 / nr=0 / decimate=0 / interlaced=0 / bluray_compat=0 / constrained_intra=0 / bframes=5 / b_pyramid=2 / b_adapt=2 / b_bias=0 / direct=1 / weightb=1 / open_gop=0 / weightp=2 / keyint=594 / keyint_min=59 / scenecut=40 / intra_refresh=0 / rc=crf / mbtree=0 / crf=15.0 / qcomp=0.60 / qpmin=0 / qpmax=69 / qpstep=4 / ip_ratio=1.40 / pb_ratio=1.30 / aq=0
Language : English
Default : Yes
Forced : No
Audio #1
ID : 2
Format : AC-3
Format/Info : Audio Coding 3
Mode extension : CM (complete main)
Codec ID : A_AC3
Duration : 1h 42mn
Bit rate mode : Constant
Bit rate : 640 Kbps
Channel(s) : 6 channels
Channel positions : Front: L C R, Side: L R, LFE
Sampling rate : 48.0 KHz
Bit depth : 16 bits
Compression mode : Lossy
Stream size : 470 MiB (4%)
Title : Многоголосый, закадровый BD CEE
Language : Russian
Default : Yes
Forced : No
Audio #2
ID : 3
Format : AC-3
Format/Info : Audio Coding 3
Mode extension : CM (complete main)
Codec ID : A_AC3
Duration : 1h 42mn
Bit rate mode : Constant
Bit rate : 448 Kbps
Channel(s) : 6 channels
Channel positions : Front: L C R, Side: L R, LFE
Sampling rate : 48.0 KHz
Bit depth : 16 bits
Compression mode : Lossy
Stream size : 329 MiB (2%)
Title : Многоголосый, закадровый ОРТ
Language : Russian
Default : No
Forced : No
Audio #3
ID : 4
Format : AC-3
Format/Info : Audio Coding 3
Mode extension : CM (complete main)
Codec ID : A_AC3
Duration : 1h 42mn
Bit rate mode : Constant
Bit rate : 640 Kbps
Channel(s) : 6 channels
Channel positions : Front: L C R, Side: L R, LFE
Sampling rate : 48.0 KHz
Bit depth : 16 bits
Compression mode : Lossy
Stream size : 470 MiB (4%)
Title : Оригинал
Language : English
Default : No
Forced : No
Text #1
ID : 5
Format : UTF-8
Codec ID : S_TEXT/UTF8
Codec ID/Info : UTF-8 Plain Text
Title : Форсированные
Language : Russian
Default : Yes
Forced : No
Text #2
ID : 6
Format : UTF-8
Codec ID : S_TEXT/UTF8
Codec ID/Info : UTF-8 Plain Text
Title : Полные
Language : Russian
Default : No
Forced : No
Text #3
ID : 7
Format : UTF-8
Codec ID : S_TEXT/UTF8
Codec ID/Info : UTF-8 Plain Text
Title : Форсированные
Language : English
Default : No
Forced : No
Text #4
ID : 8
Format : UTF-8
Codec ID : S_TEXT/UTF8
Codec ID/Info : UTF-8 Plain Text
Title : Полные
Language : English
Default : No
Forced : No
Menu
00:00:00.000 : en:Start; Diamond Snatch
00:06:58.293 : en:Turkish & Tommy; Brick Top
00:11:53.546 : en:Boris & His Brother; Avi; Doug the Head
00:16:31.741 : en:Burying a Caravan; Gypsy Bare-Knuckle Champ
00:22:47.908 : en:Sol; Tyrone & His Getaway Car
00:30:03.218 : en:Replacement Fighter; A Dive in the Fourth
00:36:27.936 : en:All Bets Are Off; One-Punch Mickey
00:41:39.414 : en:A Problem
00:48:16.393 : en:Mickey's Offer
00:53:13.607 : en:Not a Bad Moment?
00:59:06.293 : en:Bullet-Tooth Tony; Brick Top's Persuasion
01:07:47.105 : en:A Hard Man to Track Down; All Roads Lead to Boris
01:13:24.525 : en:Desert Eagle vs. Replica; Russian Standoff
01:19:09.536 : en:Predictability of Stupidity; “Look in the Dog.”
01:28:12.579 : en:“Do Not Knock Him Out.”
01:33:58.341 : en:Action & Reaction

Скриншоты

Просьба к переливающим на другие сайты, в оформлении указывайте пожалуйста авторство рипа - Tiberiumsun69-

[Цитировать]
cooter8

тут даже комментов нет) все и так знают что фильм просто лучший в своем роде) обожаю этот фильм за диалоги)
 
Показать сообщения:    

Текущее время: 05-Дек 01:24

Часовой пояс: UTC + 3


Вы не можете начинать темы
Вы не можете отвечать на сообщения
Вы не можете редактировать свои сообщения
Вы не можете удалять свои сообщения
Вы не можете голосовать в опросах
Вы не можете прикреплять файлы к сообщениям
Вы не можете скачивать файлы