Властелин колец: Трилогия / The Lord of the Rings: Trilogy (2001-2003) BDRip-AVC | Extended Cut | 60 fps Принц Персии: Пески времени / Prince of Persia: The Sands of Time (2010) BDRip 1080p | 60 fps К звёздам / Ad Astra (2019) BDRip 1080p | 60 fps Достать ножи / Knives Out (2019) BDRip 1080p | 60 fps День, когда Земля остановилась / The Day the Earth Stood Still (2008) BDRip 1080p | 60 fps Удивительное путешествие доктора Дулиттла / Dolittle (2020) BDRip 1080p | 60 fps Однажды в… Голливуде / Once Upon a Time... in Hollywood (2019) BDRip 1080p | 60 fps Паразиты / Gisaengchung (2019) BDRip 1080p | 60 fps
  1. bot

    Longevity:
    5 years 11 months
    Posts:
    410
    Gender:
    Unknown
    «Stealing stones is hazardous»- Информация
    Название: Большой куш
    Оригинальное название: Snatch
    Год выхода: 2000
    Жанр: Криминал, комедия, триллер
    Режиссер: Гай Ричи
    Сценарий: Гай Ричи
    Продюсер: Мэттью Вон, Майкл Дрейер, Стефен Маркс
    В ролях: Джейсон Стэйтем, Брэд Питт, Бенисио Дель Торо, Стивен Грэм, Алан Форд, Деннис Фарина, Раде Шербеджия, Винни Джонс, Джейсон Флеминг, Майк Рейд, Робби Ги, Ленни Джеймс, Юэн Бремнер, Эд, Уильям Бек, Энди Бекуив, Джейсон Бакхэм, Мики Кентвелл, Никки Коллинз, Тина Коллинз, Чарльз Корк, Джеймс Каннингэм, Сорча Кьюсак, Мики Ди, Сэм Дуглас, Адам Фогерти, Голди, Сид Хоар, Рональд Исаак, Чак Джулиан, Дэйв Леджено, Эрик Мейерс, Джейсон Нинх Као, Пол О’Бойл, Джимми Руссунис, Сидни Седин, Тревор Стидман, Юрий Степанов, Питер Сзакакс, Джон Тахени, Мик Тео, Энди Тилль, Велибор Топик, Скотт Уэлш, Майкл Хьюз, Лайам МакМахон, Джим Уоррен
    --Сюжет:
    Четырехпалый Френки должен был переправить краденый алмаз из Англии в США своему боссу Эви. Но вместо этого герой попадает в эпицентр больших неприятностей. Сделав ставку на подпольном боксерском поединке, Френки попадает в круговорот весьма нежелательных событий.
    Вокруг героя и его груза разворачивается сложная интрига с участием множества колоритных персонажей лондонского дна — русского гангстера, троих незадачливых грабителей, хитрого боксера и угрюмого громилы грозного мафиози. Каждый норовит в одиночку сорвать Большой Куш.
    - - Страна: Великобритания, США
    Продолжительность: 01:42:46

    Файл
    Кодек: MPEG4/ISO/AVC H.264
    Формат: MKV
    Качество: BDRip-AVC | 60 fps
    Видео: 1024x552 (1.855) | 59.940 fps | 3.5 Мбит/сек
    Аудио 1: AC3 | 5.1 | 48 kHz | 640 kbps | 16 bit | Позитив-Мультимедиа |
    Аудио 2: AC3 | 5.1 | 48 kHz | 640 kbps | 16 bit | Позитив-Мультимедиа 2010 |
    Аудио 3: AC3 | 5.1 | 48 kHz | 448 kbps | 16 bit | Нота |
    Аудио 4: AC3 | 5.1 | 48 kHz | 448 kbps | 16 bit | П. Гланц и И. Королёва |
    Аудио 5: AC3 | 5.1 | 48 kHz | 640 kbps | 16 bit | Ю. Сербин |
    Аудио 6: AC3 | 5.1 | 48 kHz | 640 kbps | 16 bit | Д. Пучков aka Гоблин, 2004 |
    Аудио 7: AC3 | 5.1 | 48 kHz | 640 kbps | 16 bit | А. Гаврилов |
    Аудио 8: AC3 | 5.1 | 48 kHz | 640 kbps | 16 bit | Ю. Живов |
    Аудио 9: AC3 | 5.1 | 48 kHz | 640 kbps | 16 bit | ENG |
    Субтитры: русские (Полные), украинские (Полные), английские (Полные)

    MedifInfo

    Video
    ID : 1
    Format : AVC
    Format/Info : Advanced Video Codec
    Format profile : High@L4.1
    Format settings, CABAC : Yes
    Format settings, ReFrames : 4 frames
    Codec ID : V_MPEG4/ISO/AVC
    Duration : 1h 42mn
    Bit rate : 3 524 Kbps
    Nominal bit rate : 3 700 Kbps
    Width : 1 024 pixels
    Height : 552 pixels
    Display aspect ratio : 1.85:1
    Frame rate mode : Constant
    Frame rate : 59.940 (59940/1000) fps
    Color space : YUV
    Chroma subsampling : 4:2:0
    Bit depth : 8 bits
    Scan type : Progressive
    Bits/(Pixel*Frame) : 0.104
    Stream size : 2.53 GiB (39%)
    Writing library : x264 core 146 r2538 121396c
    Encoding settings : cabac=1 / ref=3 / deblock=1:0:0 / analyse=0x3:0x113 / me=umh / subme=11 / psy=1 / psy_rd=1.00:0.10 / mixed_ref=1 / me_range=32 / chroma_me=1 / trellis=2 / 8x8dct=1 / cqm=0 / deadzone=21,11 / fast_pskip=0 / chroma_qp_offset=-3 / threads=12 / lookahead_threads=3 / sliced_threads=0 / nr=0 / decimate=1 / interlaced=0 / bluray_compat=0 / constrained_intra=0 / bframes=16 / b_pyramid=2 / b_adapt=2 / b_bias=0 / direct=3 / weightb=1 / open_gop=0 / weightp=2 / keyint=250 / keyint_min=25 / scenecut=40 / intra_refresh=0 / rc_lookahead=40 / rc=2pass / mbtree=1 / bitrate=3700 / ratetol=1.0 / qcomp=0.60 / qpmin=0 / qpmax=69 / qpstep=4 / cplxblur=20.0 / qblur=0.5 / vbv_maxrate=14000 / vbv_bufsize=14000 / nal_hrd=none / filler=0 / ip_ratio=1.40 / aq=1:1.00
    Language : English
    Default : Yes
    Forced : No
    Audio #1
    ID : 2
    Format : AC-3
    Format/Info : Audio Coding 3
    Mode extension : CM (complete main)
    Format settings, Endianness : Big
    Codec ID : A_AC3
    Duration : 1h 42mn
    Bit rate mode : Constant
    Bit rate : 640 Kbps
    Channel(s) : 6 channels
    Channel positions : Front: L C R, Side: L R, LFE
    Sampling rate : 48.0 KHz
    Frame rate : 31.250 fps (1536 spf)
    Compression mode : Lossy
    Stream size : 470 MiB (7%)
    Title : MVO Позитив-Мультимедиа BD EUR
    Language : Russian
    Default : Yes
    Forced : No
    Audio #2
    ID : 3
    Format : AC-3
    Format/Info : Audio Coding 3
    Mode extension : CM (complete main)
    Format settings, Endianness : Big
    Codec ID : A_AC3
    Duration : 1h 42mn
    Bit rate mode : Constant
    Bit rate : 448 Kbps
    Channel(s) : 6 channels
    Channel positions : Front: L C R, Side: L R, LFE
    Sampling rate : 48.0 KHz
    Frame rate : 31.250 fps (1536 spf)
    Compression mode : Lossy
    Stream size : 329 MiB (5%)
    Title : MVO Позитив-Мультимедиа 2010
    Language : Russian
    Default : No
    Forced : No
    Audio #3
    ID : 4
    Format : AC-3
    Format/Info : Audio Coding 3
    Mode extension : CM (complete main)
    Format settings, Endianness : Big
    Codec ID : A_AC3
    Duration : 1h 42mn
    Bit rate mode : Constant
    Bit rate : 448 Kbps
    Channel(s) : 6 channels
    Channel positions : Front: L C R, Side: L R, LFE
    Sampling rate : 48.0 KHz
    Frame rate : 31.250 fps (1536 spf)
    Compression mode : Lossy
    Stream size : 329 MiB (5%)
    Title : MVO ст. Нота
    Language : Russian
    Default : No
    Forced : No
    Audio #4
    ID : 5
    Format : AC-3
    Format/Info : Audio Coding 3
    Mode extension : CM (complete main)
    Format settings, Endianness : Big
    Codec ID : A_AC3
    Duration : 1h 42mn
    Bit rate mode : Constant
    Bit rate : 640 Kbps
    Channel(s) : 6 channels
    Channel positions : Front: L C R, Side: L R, LFE
    Sampling rate : 48.0 KHz
    Frame rate : 31.250 fps (1536 spf)
    Compression mode : Lossy
    Stream size : 470 MiB (7%)
    Title : DVO П. Гланц и И. Королёва
    Language : Russian
    Default : No
    Forced : No
    Audio #5
    ID : 6
    Format : AC-3
    Format/Info : Audio Coding 3
    Mode extension : CM (complete main)
    Format settings, Endianness : Big
    Codec ID : A_AC3
    Duration : 1h 42mn
    Bit rate mode : Constant
    Bit rate : 640 Kbps
    Channel(s) : 6 channels
    Channel positions : Front: L C R, Side: L R, LFE
    Sampling rate : 48.0 KHz
    Frame rate : 31.250 fps (1536 spf)
    Compression mode : Lossy
    Stream size : 470 MiB (7%)
    Title : AVO Ю. Сербин
    Language : Russian
    Default : No
    Forced : No
    Audio #6
    ID : 7
    Format : AC-3
    Format/Info : Audio Coding 3
    Mode extension : CM (complete main)
    Format settings, Endianness : Big
    Codec ID : A_AC3
    Duration : 1h 42mn
    Bit rate mode : Constant
    Bit rate : 640 Kbps
    Channel(s) : 6 channels
    Channel positions : Front: L C R, Side: L R, LFE
    Sampling rate : 48.0 KHz
    Frame rate : 31.250 fps (1536 spf)
    Compression mode : Lossy
    Stream size : 470 MiB (7%)
    Title : AVO Д. Пучков aka Гоблин, 2004
    Language : Russian
    Default : No
    Forced : No
    Audio #7
    ID : 8
    Format : AC-3
    Format/Info : Audio Coding 3
    Mode extension : CM (complete main)
    Format settings, Endianness : Big
    Codec ID : A_AC3
    Duration : 1h 42mn
    Bit rate mode : Constant
    Bit rate : 640 Kbps
    Channel(s) : 6 channels
    Channel positions : Front: L C R, Side: L R, LFE
    Sampling rate : 48.0 KHz
    Frame rate : 31.250 fps (1536 spf)
    Compression mode : Lossy
    Stream size : 470 MiB (7%)
    Title : AVO А. Гаврилов
    Language : Russian
    Default : No
    Forced : No
    Audio #8
    ID : 9
    Format : AC-3
    Format/Info : Audio Coding 3
    Mode extension : CM (complete main)
    Format settings, Endianness : Big
    Codec ID : A_AC3
    Duration : 1h 42mn
    Bit rate mode : Constant
    Bit rate : 640 Kbps
    Channel(s) : 6 channels
    Channel positions : Front: L C R, Side: L R, LFE
    Sampling rate : 48.0 KHz
    Frame rate : 31.250 fps (1536 spf)
    Compression mode : Lossy
    Stream size : 470 MiB (7%)
    Title : AVO Ю. Живов
    Language : Russian
    Default : No
    Forced : No
    Audio #9
    ID : 10
    Format : AC-3
    Format/Info : Audio Coding 3
    Mode extension : CM (complete main)
    Format settings, Endianness : Big
    Codec ID : A_AC3
    Duration : 1h 42mn
    Bit rate mode : Constant
    Bit rate : 640 Kbps
    Channel(s) : 6 channels
    Channel positions : Front: L C R, Side: L R, LFE
    Sampling rate : 48.0 KHz
    Frame rate : 31.250 fps (1536 spf)
    Compression mode : Lossy
    Stream size : 470 MiB (7%)
    Title : Original
    Language : English
    Default : No
    Forced : No
    Text #1
    ID : 11
    Format : UTF-8
    Codec ID : S_TEXT/UTF8
    Codec ID/Info : UTF-8 Plain Text
    Title : Полные
    Language : Russian
    Default : No
    Forced : No
    Text #2
    ID : 12
    Format : UTF-8
    Codec ID : S_TEXT/UTF8
    Codec ID/Info : UTF-8 Plain Text
    Title : Полные
    Language : Ukrainian
    Default : No
    Forced : No
    Text #3
    ID : 13
    Format : UTF-8
    Codec ID : S_TEXT/UTF8
    Codec ID/Info : UTF-8 Plain Text
    Title : Полные
    Language : English
    Default : No
    Forced : No
    Menu
    00:00:00.000 : en:Start
    00:03:56.778 : en:Diamond Snatch
    00:06:57.334 : en:Turkish and Tommy
    00:09:28.526 : en:Brick Top
    00:11:52.545 : en:Boris & His Brother
    00:12:51.104 : en:Avi
    00:13:48.119 : en:Dough the Head
    00:16:30.740 : en:Buying a Caravan
    00:20:20.010 : en:Gypsy Bare-Knuckle Champ
    00:22:46.907 : en:Sol
    00:25:17.099 : en:Tyrone and His Getaway Car
    00:30:02.217 : en:Replacement Fighter
    00:30:56.354 : en:A Dive in the Fourth
    00:36:26.935 : en:All Bets Are Off
    00:39:39.002 : en:One-Punch Mickey
    00:41:38.413 : en:A Problem
    00:48:37.915 : en:Mickey's Offer
    00:53:12.606 : en:Not a Bad Moment?
    00:59:05.292 : en:Bullet-Tooth Tony
    01:02:57.315 : en:Brick Top's Persuasion
    01:07:46.104 : en:A Hard Man to Track Down
    01:09:13.149 : en:All Roads Lead to Boris
    01:13:23.524 : en:Desert Eagle vs. Replica
    01:16:11.025 : en:Russian Standoff
    01:19:08.535 : en:Predictability of Stupidity
    01:22:21.687 : en:"Look in the Dog."
    01:28:11.578 : en:"Do Not Knock Him Out."
    01:33:57.382 : en:Action & Reaction


You cannot post new topics in this forum
You cannot reply to topics in this forum
You cannot edit your posts in this forum
You cannot delete your posts in this forum
You cannot vote in polls in this forum
You cannot attach files in this forum
You cannot download files in this forum