[Цитировать]
Kryl

--Большой Бак / Big Buck Bunny (2008) WEBRip 720p | 60 fps --Информация о фильме:
Название: Большой Бак
Оригинальное название: Big Buck Bunny
Жанр: комедия приключения
Год выхода: 2008
Продюсер: Саха Гудегебуре
Режиссёр: Саха Гудегебуре
Сценарист: Лука Шенато
Композитор: Жан Моргенстерн
Страна: Нидерланды
Продолжительность: 00:09:56
О фильме:
Забавная история из жизни большого пушистого белого кролика, доброта которого больше его самого, но всё имеет предел... В один злополучный и солнечный день три наглых грызуна решили поиздеваться над Баком... И тогда он тоже решил достойно им ответить и построил несколько занятных ловушек на мелких и подленьких грызунов под руководством злобной белки с явными признаками психического расстройства.
-Файл
Кодек: MPEG4/ISO/AVC/ H.264
Формат: MKV
Качество: WEBRip 720p
Видео: 1280 x 720 (1.778) at 57.582 fps ~6 mb/s
Аудио : AC-3 at 128 Кбит/сек | 2 канала, 44,1 КГц

MI

Видео
Идентификатор : 1
Формат : AVC
Формат/Информация : Advanced Video Codec
Профиль формата : High@L4.1
Параметр CABAC формата : Да
Параметр ReFrames формата : 8 кадров
Идентификатор кодека : V_MPEG4/ISO/AVC
Продолжительность : 9 м. 56 с.
Битрейт : 5999 Кбит/сек
Ширина : 1280 пикселей
Высота : 720 пикселей
Соотношение сторон : 16:9
Режим частоты кадров : Постоянный
Частота кадров : 57,582 кадров/сек
Частота кадров в оригинале : 57,600 кадров/сек
Цветовое пространство : YUV
Субдискретизация насыщенности : 4:2:0
Битовая глубина : 8 бит
Тип развёртки : Прогрессивная
Бит/(Пиксели*Кадры) : 0.113
Размер потока : 419 Мбайт (96%)
Библиотека кодирования : x264 core 129 r2245 bc13772
Настройки программы : cabac=1 / ref=8 / deblock=1:-1:-1 / analyse=0x3:0x133 / me=esa / subme=9 / psy=1 / psy_rd=1.00:0.15 / mixed_ref=1 / me_range=32 / chroma_me=1 / trellis=2 / 8x8dct=1 / cqm=0 / deadzone=21,11 / fast_pskip=1 / chroma_qp_offset=-3 / threads=12 / lookahead_threads=2 / sliced_threads=0 / nr=0 / decimate=1 / interlaced=0 / bluray_compat=0 / constrained_intra=0 / bframes=3 / b_pyramid=2 / b_adapt=2 / b_bias=1 / direct=3 / weightb=1 / open_gop=0 / weightp=2 / keyint=576 / keyint_min=57 / scenecut=40 / intra_refresh=0 / rc_lookahead=60 / rc=2pass / mbtree=1 / bitrate=5999 / ratetol=1.0 / qcomp=0.60 / qpmin=0 / qpmax=69 / qpstep=4 / cplxblur=19.0 / qblur=0.0 / ip_ratio=1.40 / aq=1:1.00
Язык : English
Default : Нет
Forced : Нет
Аудио
Идентификатор : 2
Формат : AC-3
Формат/Информация : Audio Coding 3
Расширение режима : CM (complete main)
Параметр Endianness формата : Big
Идентификатор кодека : A_AC3
Продолжительность : 9 м. 56 с.
Вид битрейта : Постоянный
Битрейт : 128 Кбит/сек
Каналы : 2 канала
Расположение каналов : Front: L R
Частота : 44,1 КГц
Битовая глубина : 16 бит
Метод сжатия : С потерями
Размер потока : 9,10 Мбайт (2%)
Default : Нет
Forced : Нет

[Цитировать]
Гость

448psy_rd=1.00:0.15
448keyint=576 / keyint_min=57
448me=esa
448deblock=1:-1:-1
448mbtree=1
448fast_pskip=1
Кто вас этому научил?

[Цитировать]
Kryl

Настройки по гороскопу ... :not_i: :not_i: :not_i:

[Цитировать]
Гость

KRYL, Выкиньте этот гороскоп )))

[Цитировать]
Kryl

460KRYL, Выкиньте этот гороскоп )))
Не могу ... привык )
 
Показать сообщения:    

Текущее время: 05-Дек 05:25

Часовой пояс: UTC + 3


Вы не можете начинать темы
Вы не можете отвечать на сообщения
Вы не можете редактировать свои сообщения
Вы не можете удалять свои сообщения
Вы не можете голосовать в опросах
Вы не можете прикреплять файлы к сообщениям
Вы не можете скачивать файлы