Властелин колец: Трилогия / The Lord of the Rings: Trilogy (2001-2003) BDRip-AVC | Extended Cut | 60 fps Битва за Землю / Captive State (2019) BDRip 1080p | 60 fps Снегоуборщик / Cold Pursuit (2019) BDRip 1080p | 60 fps Дамбо / Dumbo (2019) BDRip 1080p | 60 fps Джон Уик / John Wick (2014) BDRip 720p | 60 fps Клаустрофобы / Escape Room (2019) BDRip 1080p | 60 fps Проклятие плачущей / The Curse of La Llorona (2019) BDRip 720p | 60 fps Ван Хельсинг / Van Helsing (2004) BDRip-AVC | 60 fps
  1. Longevity:
    5 years 2 months
    Posts:
    2418
    Gender:
    Male
    Информация
    Название: Близнецы
    Оригинальное название: Gemini
    Год выхода: 2017
    Жанр: Триллер, детектив
    Режиссер: Аарон Кац
    Сценарий: Аарон Кац
    Продюсер: Минетт Луи, Сара Мерфи
    В ролях: Лола Кёрк, Зои Кравиц, Джон Чо, Грета Ли, Рики Лейк, Мишель Форбс, Нельсон Франклин, Рив Карни, Джессика Паркер Кеннеди, Джеймс Рэнсон

    Сюжет:
    Чудовищное преступление ставит под угрозу и без того сложные отношения между упорным личным ассистентом и ее боссом - голливудской старлеткой. В центре истории — капризная кинозвезда Хизер и ее неутомимая помощница Джилл. Поклонники поговаривают, что у них роман, но Джилл явно не до любовных интриг — в течение одного вечера ей приходится разруливать скандал Хизер с ее бойфрендом, объяснять режиссеру, что Хизер выходит из проекта, ограждать свою подопечную от навязчивых поклонников и папарацци, а еще — раздобыть для нее пистолет: ведь Хизер постоянно чувствует себя в опасности и даже сравнивает себя с героиней фильма «Крик». И раз уж в сюжете появился пистолет — он обязательно выстрелит. И, возможно, не один раз.

    Страна: США
    Продолжительность: 01:33:04

    Файл
    Кодек: H.264
    Формат: MKV
    Качество: BDRip 720p | 60 fps
    Видео: 1280 x 534 (2.397) | 59.940 fps | 10.0 Мбит/сек
    Аудио 01: AC3 | 2.0 | 48 kHz | 192 kbps | 16 bit | HDRezka Studio |
    Аудио 02: AC3 | 5.1 | 48 kHz | 448 kbps | 16 bit | english |
    Субтитры: english

    MedifInfo

    Видео
    Идентификатор : 1
    Формат : AVC
    Формат/Информация : Advanced Video Codec
    Профиль формата : Main@L4.1
    Настройки формата : CABAC / 5 Ref Frames
    Параметр CABAC формата : Да
    Параметр RefFrames формата : 5 кадров
    Режим смешивания : Header stripping
    Идентификатор кодека : V_MPEG4/ISO/AVC
    Продолжительность : 1 ч. 33 м.
    Битрейт : 9999 Кбит/сек
    Ширина : 1280 пикселей
    Высота : 534 пикселя
    Соотношение сторон : 2,40:1
    Режим частоты кадров : Постоянный
    Частота кадров : 59,940 (60000/1001) кадров/сек
    Цветовое пространство : YUV
    Субдискретизация насыщенности : 4:2:0
    Битовая глубина : 8 бит
    Тип развёртки : Прогрессивная
    Бит/(Пиксели*Кадры) : 0.244
    Размер потока : 6,35 Гбайт (92%)
    Заголовок : www.60-fps.org
    Библиотека кодирования : x264 core 155 r2901 7d0ff22
    Настройки программы : cabac=1 / ref=5 / deblock=1:-3:-3 / analyse=0x1:0x111 / me=hex / subme=8 / psy=1 / psy_rd=1.00:0.25 / mixed_ref=1 / me_range=16 / chroma_me=1 / trellis=2 / 8x8dct=0 / cqm=0 / deadzone=6,6 / fast_pskip=1 / chroma_qp_offset=-4 / threads=12 / lookahead_threads=2 / sliced_threads=0 / nr=0 / decimate=0 / interlaced=0 / bluray_compat=0 / constrained_intra=0 / bframes=3 / b_pyramid=2 / b_adapt=1 / b_bias=0 / direct=3 / weightb=1 / open_gop=0 / weightp=2 / keyint=599 / keyint_min=59 / scenecut=40 / intra_refresh=0 / rc_lookahead=50 / rc=2pass / mbtree=1 / bitrate=9999 / ratetol=1.0 / qcomp=0.80 / qpmin=0 / qpmax=69 / qpstep=4 / cplxblur=20.0 / qblur=0.5 / vbv_maxrate=50000 / vbv_bufsize=62500 / nal_hrd=none / filler=0 / ip_ratio=1.10 / aq=1:0.50
    Default : Да
    Forced : Нет
    Аудио #1
    Идентификатор : 2
    Формат : AC-3
    Формат/Информация : Audio Coding 3
    Режим смешивания : Header stripping
    Идентификатор кодека : A_AC3
    Продолжительность : 1 ч. 33 м.
    Вид битрейта : Постоянный
    Битрейт : 192 Кбит/сек
    Каналы : 2 канала
    Расположение каналов : Front: L R
    Частота : 48,0 КГц
    Частота кадров : 31,250 кадров/сек (1536 SPF)
    Битовая глубина : 16 бит
    Метод сжатия : С потерями
    Размер потока : 128 Мбайт (2%)
    Заголовок : HDRezka Studio
    Язык : Russian
    ServiceKind/String : Complete Main
    Default : Да
    Forced : Нет
    Аудио #2
    Идентификатор : 3
    Формат : AC-3
    Формат/Информация : Audio Coding 3
    Режим смешивания : Header stripping
    Идентификатор кодека : A_AC3
    Продолжительность : 1 ч. 33 м.
    Вид битрейта : Постоянный
    Битрейт : 448 Кбит/сек
    Каналы : 6 каналов
    Расположение каналов : Front: L C R, Side: L R, LFE
    Частота : 48,0 КГц
    Частота кадров : 31,250 кадров/сек (1536 SPF)
    Битовая глубина : 16 бит
    Метод сжатия : С потерями
    Размер потока : 298 Мбайт (4%)
    Заголовок : english
    Язык : English
    ServiceKind/String : Complete Main
    Default : Нет
    Forced : Нет

    Release was prepared by 60 - fps



You cannot post new topics in this forum
You cannot reply to topics in this forum
You cannot edit your posts in this forum
You cannot delete your posts in this forum
You cannot vote in polls in this forum
You cannot attach files in this forum
You cannot download files in this forum