[Цитировать]
Гость

Блэйд

-Название: Блэйд
Оригинальное название: Blade
Год выпуска: 1998
Страна: США
Жанр: ужасы, боевик, фэнтези
Продолжительность: 02:00:14
Перевод: Дубляж
Субтитры: русские (Полные), английские (Полные)-Режиссер: Стивен Норрингтон / Stephen Norrington-В ролях: Уэсли Снайпс (Blade), Стивен Дорфф (Deacon Frost), Крис Кристофферсон (Whistler), Н’Буш Райт (Karen), Донал Лог (Quinn), Удо Кир (Dragonetti), Арли Жовер (Mercury), Трейси Лордс (Racquel), Кевин Патрик Уоллс (Krieger), Тим Гини (Curtis Webb), Санаа Лэтэн (Vanessa), Эрик Эдвардс (Pearl)-Описание:
Получеловек-полувампир Блэйд намерен уничтожить виновника своей судьбы - Дьякона Фроста. Когда-то в кровь Блэйда попало совсем немного вампирского яда, но с течением времени он стал ощущать неизбежность своего превращения.
Желая избавить людей от тайной и могущественной армии вампиров, заполонившей общество, он отправляется на решающий бой...-Рейтинг

imdb.com: 7.10 (154 908)
MPAA: R - Лицам до 17 лет обязательно присутствие взрослого-Автор рипа:Tiberiumsun69
-Качество: BDRip 1080p / 60 FPS
Формат: MKV
Видео кодек: AVC
Аудио кодек:AC3
Видео: AVC, 1920x1080, 14000 kbps, 59,940 fps
Аудио №1: русский / AC3 / 5.1 / 48 kHz / 384 kbps / 16 bit |Дубляж|
Аудио №2: русский / AC3 / 5.1 / 48 kHz / 384 kbps / 16 bit |Многоголосый, закадровый Киномания|
Аудио №3: английский / AC3 / 5.1 / 48 kHz / 640 kbps / 16 bit
Навигация по главам: есть- -

MI

General
Unique ID : 197765191935536371638228481406472330625 (0x94C830C54DB810909C374A11EBA89D81)
Complete name : A:1080p 60fpsБлэйд 1080p 60fpsБлэйд 1 1080p 60fps.mkv
Format : Matroska
Format version : Version 4 / Version 2
File size : 12.9 GiB
Duration : 2h 0mn
Overall bit rate : 15.4 Mbps
Encoded date : UTC 2014-10-19 02:18:02
Writing application : mkvmerge v6.9.1 ('Blue Panther') 64bit built on Apr 18 2014 18:23:38
Writing library : libebml v1.3.0 + libmatroska v1.4.1
Video
ID : 1
Format : AVC
Format/Info : Advanced Video Codec
Format profile : High@L4.1
Format settings, CABAC : Yes
Format settings, ReFrames : 4 frames
Codec ID : V_MPEG4/ISO/AVC
Duration : 2h 0mn
Bit rate : 14.0 Mbps
Width : 1 920 pixels
Height : 1 080 pixels
Display aspect ratio : 16:9
Frame rate : 59.940 fps
Color space : YUV
Chroma subsampling : 4:2:0
Bit depth : 8 bits
Scan type : Progressive
Bits/(Pixel*Frame) : 0.113
Stream size : 11.5 GiB (89%)
Writing library : x264 core 130 r2273 b3065e6
Encoding settings : cabac=1 / ref=4 / deblock=1:-1:-1 / analyse=0x3:0 / me=umh / subme=9 / psy=1 / psy_rd=1.00:0.00 / mixed_ref=1 / me_range=44 / chroma_me=0 / trellis=2 / 8x8dct=1 / cqm=0 / deadzone=21,11 / fast_pskip=0 / chroma_qp_offset=-2 / threads=12 / lookahead_threads=1 / sliced_threads=0 / nr=0 / decimate=0 / interlaced=0 / bluray_compat=0 / constrained_intra=0 / bframes=5 / b_pyramid=2 / b_adapt=2 / b_bias=0 / direct=3 / weightb=1 / open_gop=0 / weightp=2 / keyint=250 / keyint_min=59 / scenecut=40 / intra_refresh=0 / rc_lookahead=60 / rc=2pass / mbtree=1 / bitrate=14000 / ratetol=1.0 / qcomp=0.80 / qpmin=0 / qpmax=69 / qpstep=4 / cplxblur=20.0 / qblur=0.5 / ip_ratio=1.40 / aq=1:0.80
Language : English
Default : Yes
Forced : No
Audio #1
ID : 2
Format : AC-3
Format/Info : Audio Coding 3
Mode extension : CM (complete main)
Codec ID : A_AC3
Duration : 2h 0mn
Bit rate mode : Constant
Bit rate : 384 Kbps
Channel(s) : 6 channels
Channel positions : Front: L C R, Side: L R, LFE
Sampling rate : 48.0 KHz
Bit depth : 16 bits
Compression mode : Lossy
Stream size : 330 MiB (2%)
Title : Дубляж
Language : Russian
Default : Yes
Forced : No
Audio #2
ID : 3
Format : AC-3
Format/Info : Audio Coding 3
Mode extension : CM (complete main)
Codec ID : A_AC3
Duration : 2h 0mn
Bit rate mode : Constant
Bit rate : 384 Kbps
Channel(s) : 6 channels
Channel positions : Front: L C R, Side: L R, LFE
Sampling rate : 48.0 KHz
Bit depth : 16 bits
Compression mode : Lossy
Stream size : 330 MiB (2%)
Title : Многоголосый, закадровый Киномания
Language : Russian
Default : No
Forced : No
Audio #3
ID : 4
Format : AC-3
Format/Info : Audio Coding 3
Mode extension : CM (complete main)
Codec ID : A_AC3
Duration : 2h 0mn
Bit rate mode : Constant
Bit rate : 640 Kbps
Channel(s) : 6 channels
Channel positions : Front: L C R, Side: L R, LFE
Sampling rate : 48.0 KHz
Bit depth : 16 bits
Compression mode : Lossy
Stream size : 550 MiB (4%)
Title : Оригинал
Language : English
Default : No
Forced : No
Text #1
ID : 5
Format : UTF-8
Codec ID : S_TEXT/UTF8
Codec ID/Info : UTF-8 Plain Text
Title : Полные
Language : Russian
Default : No
Forced : No
Text #2
ID : 6
Format : UTF-8
Codec ID : S_TEXT/UTF8
Codec ID/Info : UTF-8 Plain Text
Title : Полные
Language : English
Default : No
Forced : No
Menu
00:00:00.000 : en:Chapter 1
00:05:15.189 : en:Chapter 2
00:10:59.200 : en:Chapter 3
00:16:14.515 : en:Chapter 4
00:23:43.380 : en:Chapter 5
00:30:39.796 : en:Chapter 6
00:39:18.564 : en:Chapter 7
00:45:49.246 : en:Chapter 8
00:50:14.428 : en:Chapter 9
00:58:07.275 : en:Chapter 10
01:08:06.540 : en:Chapter 11
01:14:49.359 : en:Chapter 12
01:25:07.060 : en:Chapter 13
01:36:50.137 : en:Chapter 14
01:53:14.245 : en:Chapter 15
01:55:12.488 : en:Chapter 16
02:00:13.206 : en:Chapter 17

Скриншоты

Блэйд 2

-Название: Блэйд 2
Оригинальное название: Blade II
Год выпуска: 2002
Страна: США, Германия
Жанр: ужасы, боевик, триллер, фэнтези
Продолжительность: 01:56:50
Перевод: Дубляж
Субтитры: русские (Полные), английские (Полные)-Режиссер: Гильермо дель Торо / Guillermo del Toro-В ролях: Уэсли Снайпс (Blade), Крис Кристофферсон (Whistler), Рон Перлман (Reinhardt), Леонор Варела (Nyssa), Норман Ридус (Scud), Томас Кречман (Damaskinos), Люк Госс (Nomak), Мэтт Шульце (Chupa), Дэнни Джон-Джулс (Asad), Донни Ен (Snowman), Карел Роден (Kounen), Марит Велле Киле (Verlaine)-Описание:
Мир вампиров в ужасе от появления новой расы супер-кровососов! Именно благодаря этому легендарный Блэйд и его учитель Уистлер вынуждены объединиться со своими кровными врагами Кровавой Стаей, - элитным отрядом вампиров-воинов.-Рейтинг

imdb.com: 6.70 (127 878)
MPAA: R - Лицам до 17 лет обязательно присутствие взрослого-Автор рипа:Tiberiumsun69
-Качество: BDRip 1080p / 60 FPS
Формат: MKV
Видео кодек: AVC
Аудио кодек:AC3
Видео: AVC, 1920x1080, 14000 kbps, 59,940 fps
Аудио №1: русский / AC3 / 5.1 / 48 kHz / 448 kbps / 16 bit |Дубляж|
Аудио №2: английский / AC3 / 5.1 / 48 kHz / 640 kbps / 16 bit
Навигация по главам: есть- -

MI

General
Unique ID : 184973555229194985468014904893216699790 (0x8B289C638554CDB2B0FBB899C408B58E)
Complete name : A:1080p 60fpsБлэйд 1080p 60fpsБлэйд 2 1080p 60fps.mkv
Format : Matroska
Format version : Version 4 / Version 2
File size : 12.3 GiB
Duration : 1h 56mn
Overall bit rate : 15.1 Mbps
Encoded date : UTC 2014-10-19 02:43:59
Writing application : mkvmerge v6.9.1 ('Blue Panther') 64bit built on Apr 18 2014 18:23:38
Writing library : libebml v1.3.0 + libmatroska v1.4.1
Video
ID : 1
Format : AVC
Format/Info : Advanced Video Codec
Format profile : High@L4.1
Format settings, CABAC : Yes
Format settings, ReFrames : 4 frames
Codec ID : V_MPEG4/ISO/AVC
Duration : 1h 56mn
Bit rate : 14.0 Mbps
Width : 1 920 pixels
Height : 1 080 pixels
Display aspect ratio : 16:9
Frame rate : 59.940 fps
Color space : YUV
Chroma subsampling : 4:2:0
Bit depth : 8 bits
Scan type : Progressive
Bits/(Pixel*Frame) : 0.113
Stream size : 11.2 GiB (91%)
Writing library : x264 core 130 r2273 b3065e6
Encoding settings : cabac=1 / ref=4 / deblock=1:-1:-1 / analyse=0x3:0 / me=umh / subme=9 / psy=1 / psy_rd=1.00:0.00 / mixed_ref=1 / me_range=44 / chroma_me=0 / trellis=2 / 8x8dct=1 / cqm=0 / deadzone=21,11 / fast_pskip=0 / chroma_qp_offset=-2 / threads=12 / lookahead_threads=1 / sliced_threads=0 / nr=0 / decimate=0 / interlaced=0 / bluray_compat=0 / constrained_intra=0 / bframes=5 / b_pyramid=2 / b_adapt=2 / b_bias=0 / direct=3 / weightb=1 / open_gop=0 / weightp=2 / keyint=250 / keyint_min=59 / scenecut=40 / intra_refresh=0 / rc_lookahead=60 / rc=2pass / mbtree=1 / bitrate=14000 / ratetol=1.0 / qcomp=0.80 / qpmin=0 / qpmax=69 / qpstep=4 / cplxblur=20.0 / qblur=0.5 / ip_ratio=1.40 / aq=1:0.80
Language : English
Default : Yes
Forced : No
Audio #1
ID : 2
Format : AC-3
Format/Info : Audio Coding 3
Mode extension : CM (complete main)
Codec ID : A_AC3
Duration : 1h 56mn
Bit rate mode : Constant
Bit rate : 448 Kbps
Channel(s) : 6 channels
Channel positions : Front: L C R, Side: L R, LFE
Sampling rate : 48.0 KHz
Bit depth : 16 bits
Compression mode : Lossy
Delay relative to video : 448ms
Stream size : 374 MiB (3%)
Title : Дубляж
Language : Russian
Default : Yes
Forced : No
Audio #2
ID : 3
Format : AC-3
Format/Info : Audio Coding 3
Mode extension : CM (complete main)
Codec ID : A_AC3
Duration : 1h 56mn
Bit rate mode : Constant
Bit rate : 640 Kbps
Channel(s) : 6 channels
Channel positions : Front: L C R, Side: L R, LFE
Sampling rate : 48.0 KHz
Bit depth : 16 bits
Compression mode : Lossy
Stream size : 535 MiB (4%)
Title : Оригинал
Language : English
Default : No
Forced : No
Text #1
ID : 4
Format : UTF-8
Codec ID : S_TEXT/UTF8
Codec ID/Info : UTF-8 Plain Text
Title : Полные
Language : Russian
Default : No
Forced : No
Text #2
ID : 5
Format : UTF-8
Codec ID : S_TEXT/UTF8
Codec ID/Info : UTF-8 Plain Text
Title : Полные
Language : English
Default : No
Forced : No
Menu
00:00:00.000 : en:Chapter 1
00:04:57.964 : en:Chapter 2
00:12:42.678 : en:Chapter 3
00:16:59.935 : en:Chapter 4
00:23:12.182 : en:Chapter 5
00:28:36.381 : en:Chapter 6
00:36:23.181 : en:Chapter 7
00:39:33.704 : en:Chapter 8
00:47:46.864 : en:Chapter 9
00:57:21.479 : en:Chapter 10
01:05:49.236 : en:Chapter 11
01:12:31.388 : en:Chapter 12
01:22:00.081 : en:Chapter 13
01:29:42.167 : en:Chapter 14
01:38:02.084 : en:Chapter 15
01:49:13.964 : en:Chapter 16
01:56:49.627 : en:Chapter 17

Скриншоты

Блэйд 3: Троица

-Название: Блэйд 3: Троица
Оригинальное название: Blade: Trinity
Год выпуска: 2004
Страна: США
Жанр: ужасы, фантастика, фэнтези, боевик, триллер, приключения
Продолжительность: 01:52:52
Перевод: Дубляж
Субтитры: русские (Полные), английские (Полные)-Режиссер: Дэвид С. Гойер / David S. Goyer-В ролях: Уэсли Снайпс (Blade), Крис Кристофферсон (Whistler), Доминик Пёрселл (Drake), Джессика Бил (Abigail Whistler), Райан Рейнольдс (Hannibal King), Паркер Поузи (Danica Talos), Марк Берри (Chief Martin Vreede), Джон Майкл Хиггинс (Dr. Edgar Vance), Каллум Кит Ренни (Asher Talos), Пол Левески (Jarko Grimwood), Пол Энтони (Wolfe), Франсуаза Йип (Virago)-Описание:
Фатальные события могут привести к захвату власти в мире вампирами. Блэйд - единственный, кто может предотвратить страшные перемены и воспрепятствовать превращению мира в «Планету вампиров».
Стремясь помешать Блэйду в реализации его плана, верхушка вампиров во главе с Даникой Талос натравливают на него людей. Полиция начинает охоту на того, кого теперь все считают жутким монстром...-Рейтинг

imdb.com: 5.90 (106 004)
MPAA: R - Лицам до 17 лет обязательно присутствие взрослого-Автор рипа:Tiberiumsun69
-Качество: BDRip 1080p / 60 FPS
Формат: MKV
Видео кодек: AVC
Аудио кодек:AC3
Видео: AVC, 1920x808, 14000 kbps, 59,940 fps
Аудио №1: русский / AC3 / 5.1 / 48 kHz / 384 kbps / 16 bit |Дубляж|
Аудио №2: английский / AC3 / 5.1 / 48 kHz / 640 kbps / 16 bit
Навигация по главам: есть- -

MI

General
Unique ID : 222692167510185948058768570948813774619 (0xA788F38D903D0F73B4C2346C52E2DF1B)
Complete name : A:1080p 60fpsБлэйд 1080p 60fpsБлэйд 3 1080p 60fps.mkv
Format : Matroska
Format version : Version 4 / Version 2
File size : 11.8 GiB
Duration : 1h 52mn
Overall bit rate : 15.0 Mbps
Encoded date : UTC 2014-10-19 02:58:52
Writing application : mkvmerge v6.9.1 ('Blue Panther') 64bit built on Apr 18 2014 18:23:38
Writing library : libebml v1.3.0 + libmatroska v1.4.1
Video
ID : 1
Format : AVC
Format/Info : Advanced Video Codec
Format profile : High@L4.1
Format settings, CABAC : Yes
Format settings, ReFrames : 4 frames
Codec ID : V_MPEG4/ISO/AVC
Duration : 1h 52mn
Bit rate : 14.0 Mbps
Width : 1 920 pixels
Height : 808 pixels
Display aspect ratio : 2.40:1
Frame rate : 59.940 fps
Color space : YUV
Chroma subsampling : 4:2:0
Bit depth : 8 bits
Scan type : Progressive
Bits/(Pixel*Frame) : 0.151
Stream size : 10.8 GiB (91%)
Writing library : x264 core 130 r2273 b3065e6
Encoding settings : cabac=1 / ref=4 / deblock=1:-1:-1 / analyse=0x3:0 / me=umh / subme=9 / psy=1 / psy_rd=1.00:0.00 / mixed_ref=1 / me_range=44 / chroma_me=0 / trellis=2 / 8x8dct=1 / cqm=0 / deadzone=21,11 / fast_pskip=0 / chroma_qp_offset=-2 / threads=12 / lookahead_threads=1 / sliced_threads=0 / nr=0 / decimate=0 / interlaced=0 / bluray_compat=0 / constrained_intra=0 / bframes=5 / b_pyramid=2 / b_adapt=2 / b_bias=0 / direct=3 / weightb=1 / open_gop=0 / weightp=2 / keyint=250 / keyint_min=59 / scenecut=40 / intra_refresh=0 / rc_lookahead=60 / rc=2pass / mbtree=1 / bitrate=14000 / ratetol=1.0 / qcomp=0.80 / qpmin=0 / qpmax=69 / qpstep=4 / cplxblur=20.0 / qblur=0.5 / ip_ratio=1.40 / aq=1:0.80
Language : English
Default : Yes
Forced : No
Audio #1
ID : 2
Format : AC-3
Format/Info : Audio Coding 3
Mode extension : CM (complete main)
Codec ID : A_AC3
Duration : 1h 52mn
Bit rate mode : Constant
Bit rate : 384 Kbps
Channel(s) : 6 channels
Channel positions : Front: L C R, Side: L R, LFE
Sampling rate : 48.0 KHz
Bit depth : 16 bits
Compression mode : Lossy
Stream size : 310 MiB (3%)
Title : Дубляж
Language : Russian
Default : Yes
Forced : No
Audio #2
ID : 3
Format : AC-3
Format/Info : Audio Coding 3
Mode extension : CM (complete main)
Codec ID : A_AC3
Duration : 1h 52mn
Bit rate mode : Constant
Bit rate : 640 Kbps
Channel(s) : 6 channels
Channel positions : Front: L C R, Side: L R, LFE
Sampling rate : 48.0 KHz
Bit depth : 16 bits
Compression mode : Lossy
Stream size : 517 MiB (4%)
Title : Оригинал
Language : English
Default : No
Forced : No
Text #1
ID : 4
Format : UTF-8
Codec ID : S_TEXT/UTF8
Codec ID/Info : UTF-8 Plain Text
Title : Полные
Language : Russian
Default : No
Forced : No
Text #2
ID : 5
Format : UTF-8
Codec ID : S_TEXT/UTF8
Codec ID/Info : UTF-8 Plain Text
Title : Полные
Language : English
Default : No
Forced : No
Menu
00:00:00.000 : en:Chapter 1
00:10:25.916 : en:Chapter 2
00:17:42.394 : en:Chapter 3
00:25:12.594 : en:Chapter 4
00:30:44.717 : en:Chapter 5
00:37:58.317 : en:Chapter 6
00:45:58.505 : en:Chapter 7
00:51:35.467 : en:Chapter 8
00:59:47.333 : en:Chapter 9
01:06:27.608 : en:Chapter 10
01:13:23.816 : en:Chapter 11
01:21:37.142 : en:Chapter 12
01:27:20.109 : en:Chapter 13
01:32:26.165 : en:Chapter 14
01:39:20.579 : en:Chapter 15
01:44:25.259 : en:Chapter 16
01:52:52.599 : en:Chapter 17

Скриншоты

Просьба к переливающим на другие сайты, в оформлении указывайте пожалуйста авторство рипа - Tiberiumsun69

[Цитировать]
rembo1410

спасибо
 
Показать сообщения:    

Текущее время: 02-Дек 21:07

Часовой пояс: UTC + 3


Вы не можете начинать темы
Вы не можете отвечать на сообщения
Вы не можете редактировать свои сообщения
Вы не можете удалять свои сообщения
Вы не можете голосовать в опросах
Вы не можете прикреплять файлы к сообщениям
Вы не можете скачивать файлы