[Цитировать]
ZHz

Название: Блеф
Оригинальное название: Bluff storia di truffe e di imbroglioni
Год выпуска: 1976
Страна: Италия
Жанр: Комедия, криминальный фильм
Продолжительность: 01:44:30
Перевод: Дублированный со вставками многоголосного, профессиональный многоголосый, авторский одноголосый (Мудров, Живаго, Володарский)
Субтитры: Отсутствуют
Режиссер: Серджо Корбуччи-В ролях: Энтони Куинн, Адриано Челентано, Капучине, Корин Клери, Уго Болонья, Аттилио Доттезио, Ренцо Мариньяно, Микки Нокс, Рокко Лерро, Савьяна Скалфи, Ренцо Оззано, Лео Гаверо, Пиппо Туминелли, Мирча Карвен, Хелен Стирлинг--Описание: Белль Дюк имеет старые счеты с Филиппом Бэнгом, который отбывает свой срок за решёткой. Для того чтобы поквитаться с Филиппом, Белль Дюк вступает в сговор с другим аферистом по имени Феликс, чтобы тот организовал побег Филиппа Бенга из тюрьмы. Побег удаётся, но парочка заодно обманывает и Белль Дюк, исчезнув прямо из под её носа. Выясняется, что и Филипп Бэнг, в свою очередь, не прочь отомстить Белль Дюк. Для этого он задумывает грандиозную мистификацию, сродни покерному блефу…--СЭМПЛ
Кодек: AVC
Формат: MKV
Качество: DVDRip
Видео: 720x408, 60.000 fps, 8 Mbps
Аудио №1:Русский (Dolby AC3, 2 ch, 224 Кбит/с)
Аудио №2:Итальянский (Dolby AC3, 2 ch, 256 Кбит/с)
Аудио №3:Русский (Dolby AC3, 2 ch, 256 Кбит/с)
Аудио №4:Русский (Dolby AC3, 2 ch, 192 Кбит/с)

MediaInfo

General
Unique ID : 181914680632587295087527445022729850833 (0x88DB7E3A3063F570956A24007AB84FD1)
Complete name : J:\60FPS\Bluff Storia di Truffe e di Imbroglioni\Bluff Storia di Truffe e di Imbroglioni[60FPS by ZHz].mkv
Format : Matroska
Format version : Version 2
File size : 6.87 GiB
Duration : 1h 44mn
Overall bit rate : 9 408 Kbps
Encoded date : UTC 2014-11-07 19:45:33
Writing application : mkvmerge v4.2.0 ('No Talking') сборка от Jul 28 2010 18:38:23
Writing library : libebml v1.0.0 + libmatroska v1.0.0
Video
ID : 1
Format : AVC
Format/Info : Advanced Video Codec
Format profile : High@L3.1
Format settings, CABAC : Yes
Format settings, ReFrames : 5 frames
Muxing mode : Header stripping
Codec ID : V_MPEG4/ISO/AVC
Duration : 1h 44mn
Bit rate : 8 000 Kbps
Width : 720 pixels
Height : 408 pixels
Display aspect ratio : 16:9
Frame rate mode : Constant
Frame rate : 60.000 fps
Color space : YUV
Chroma subsampling : 4:2:0
Bit depth : 8 bits
Scan type : Progressive
Bits/(Pixel*Frame) : 0.454
Stream size : 5.77 GiB (84%)
Writing library : x264 core 130 r2273 b3065e6
Encoding settings : cabac=1 / ref=5 / deblock=1:-1:-1 / analyse=0x3:0x112 / me=umh / subme=4 / psy=1 / psy_rd=1.00:0.10 / mixed_ref=1 / me_range=4 / chroma_me=1 / trellis=2 / 8x8dct=1 / cqm=0 / deadzone=21,11 / fast_pskip=1 / chroma_qp_offset=-1 / threads=12 / lookahead_threads=3 / sliced_threads=0 / nr=0 / decimate=1 / interlaced=0 / bluray_compat=0 / constrained_intra=0 / bframes=3 / b_pyramid=2 / b_adapt=1 / b_bias=0 / direct=1 / weightb=1 / open_gop=0 / weightp=2 / keyint=250 / keyint_min=25 / scenecut=40 / intra_refresh=0 / rc_lookahead=40 / rc=abr / mbtree=1 / bitrate=8000 / ratetol=1.0 / qcomp=0.60 / qpmin=0 / qpmax=69 / qpstep=4 / ip_ratio=1.40 / aq=1:1.00
Language : English
Default : Yes
Forced : No
Audio #1
ID : 2
Format : AC-3
Format/Info : Audio Coding 3
Mode extension : CM (complete main)
Format settings, Endianness : Big
Muxing mode : Header stripping
Codec ID : A_AC3
Duration : 1h 44mn
Bit rate mode : Constant
Bit rate : 224 Kbps
Channel(s) : 2 channels
Channel positions : Front: L R
Sampling rate : 48.0 KHz
Bit depth : 16 bits
Compression mode : Lossy
Delay relative to video : 80ms
Stream size : 167 MiB (2%)
Default : Yes
Forced : No
Audio #2
ID : 3
Format : AC-3
Format/Info : Audio Coding 3
Mode extension : CM (complete main)
Format settings, Endianness : Big
Muxing mode : Header stripping
Codec ID : A_AC3
Duration : 1h 44mn
Bit rate mode : Constant
Bit rate : 256 Kbps
Channel(s) : 2 channels
Channel positions : Front: L R
Sampling rate : 48.0 KHz
Bit depth : 16 bits
Compression mode : Lossy
Delay relative to video : 80ms
Stream size : 191 MiB (3%)
Default : No
Forced : No
Audio #3
ID : 4
Format : AC-3
Format/Info : Audio Coding 3
Mode extension : CM (complete main)
Format settings, Endianness : Big
Muxing mode : Header stripping
Codec ID : A_AC3
Duration : 1h 44mn
Bit rate mode : Constant
Bit rate : 256 Kbps
Channel(s) : 2 channels
Channel positions : Front: L R
Sampling rate : 48.0 KHz
Bit depth : 16 bits
Compression mode : Lossy
Delay relative to video : 80ms
Stream size : 191 MiB (3%)
Default : No
Forced : No
Audio #4
ID : 5
Format : AC-3
Format/Info : Audio Coding 3
Mode extension : CM (complete main)
Format settings, Endianness : Big
Muxing mode : Header stripping
Codec ID : A_AC3
Duration : 1h 44mn
Bit rate mode : Constant
Bit rate : 192 Kbps
Channel(s) : 2 channels
Channel positions : Front: L R
Sampling rate : 48.0 KHz
Bit depth : 16 bits
Compression mode : Lossy
Delay relative to video : 80ms
Stream size : 144 MiB (2%)
Default : No
Forced : No
Audio #5
ID : 6
Format : AC-3
Format/Info : Audio Coding 3
Mode extension : CM (complete main)
Format settings, Endianness : Big
Muxing mode : Header stripping
Codec ID : A_AC3
Duration : 1h 44mn
Bit rate mode : Constant
Bit rate : 192 Kbps
Channel(s) : 2 channels
Channel positions : Front: L R
Sampling rate : 48.0 KHz
Bit depth : 16 bits
Compression mode : Lossy
Delay relative to video : 80ms
Stream size : 144 MiB (2%)
Default : No
Forced : No
Audio #6
ID : 7
Format : AC-3
Format/Info : Audio Coding 3
Mode extension : CM (complete main)
Format settings, Endianness : Big
Muxing mode : Header stripping
Codec ID : A_AC3
Duration : 1h 44mn
Bit rate mode : Constant
Bit rate : 192 Kbps
Channel(s) : 2 channels
Channel positions : Front: L R
Sampling rate : 48.0 KHz
Bit depth : 16 bits
Compression mode : Lossy
Delay relative to video : 80ms
Stream size : 144 MiB (2%)
Default : No
Forced : No

Скриншоты

[Цитировать]
GERA1971

Если нет желаюших скачивать.Как нужно поступить?

[Цитировать]
Kryl

2025Если нет желаюших скачивать.Как нужно поступить?
В смысле ? поступить ?

[Цитировать]
GERA1971

В смысле что сделать, чтобы у меня скачивали и всем было хорошо?! Бук у меня сутки не выключался и .....?????

[Цитировать]
ewgesha2222

Включите "БУК" и Я скачаю)))

[Цитировать]
ewgesha2222

спасибо
 
Показать сообщения:    

Текущее время: 06-Дек 15:06

Часовой пояс: UTC + 3


Вы не можете начинать темы
Вы не можете отвечать на сообщения
Вы не можете редактировать свои сообщения
Вы не можете удалять свои сообщения
Вы не можете голосовать в опросах
Вы не можете прикреплять файлы к сообщениям
Вы не можете скачивать файлы