[Цитировать]
Kryl

Фильм Битва за Севастополь (2015) BDRip 720p | 60 fps Фильм- Информация
Название: Битва за Севастополь
Год выхода: 2015
Жанр: Военный, ВОВ, драма, реальные события
Режиссер: Сергей Мокрицкий
Сценарий: Максим Бударин, Сергей Мокрицкий, Леонид Корин
Продюсер: Егор Олесов, Наталья Мокрицкая, Ульяна Савельева
В ролях: Юлия Пересильд, Евгений Цыганов, Олег Васильков, Никита Тарасов, Джоан Блэкэм, Полина Пахомова (II), Владимир Лилицкий, Анатолий Кот, Нателла Абелева-Таганова, Валерий Гришко, Сергей Барковский, Виталий Линецкий, Сергей Пускепалис, Геннадий Ченцов, Светлана Осадченко, Алла Сергийко, Станислав Боклан, Дмитрий Лаленков, Станислав Лесной, Сергей Сипливый
--Сюжет:
Любовь под нескончаемым огнем противника, дружба с Элеонорой Рузвельт, выступление на конференции, повлиявшее на исход Второй мировой войны, желание жить и страх потерять любимого человека — справится ли со всем этим хрупкая женщина?
Это реальная история Людмилы Павличенко — легендарной женщины-снайпера. Солдаты шли в бой с ее именем на устах, а враги устроили на нее охоту. На поле битвы она видела смерть и страдания, но самым серьезным испытанием для нее стала любовь, которую у нее могла забрать война…
- Страна: Россия, Украина
Продолжительность: 02:02:52

Файл
Кодек: MPEG4/ISO/AVC H.264
Формат: MKV
Качество: BDRip 720p | 60 fps
Видео: 1280 x 534 (2.397) | 60.000 fps | 9.0 Мбит/сек
Аудио: AC3 | 5.1 | 48 kHz | 640 kbps | 16 bit
Аудио: AC3 | 5.1 | 48 kHz | 640 kbps | 16 bit Deutsch
Субтитры: Русские, Deutsch

MedifInfo

Видео
Идентификатор : 1
Формат : AVC
Формат/Информация : Advanced Video Codec
Профиль формата : High@L4.1
Параметр CABAC формата : Да
Параметр ReFrames формата : 3 кадра
Идентификатор кодека : V_MPEG4/ISO/AVC
Продолжительность : 2 ч. 2 м.
Вид битрейта : Переменный
Битрейт : 8744 Кбит/сек
Максимальный битрейт : 9000 Кбит/сек
Ширина : 1280 пикселей
Высота : 534 пикселя
Соотношение сторон : 2,40:1
Режим частоты кадров : Постоянный
Частота кадров : 60,000 кадров/сек
Стандарт вещания : PAL
Цветовое пространство : YUV
Субдискретизация насыщенности : 4:2:0
Битовая глубина : 8 бит
Тип развёртки : Прогрессивная
Бит/(Пиксели*Кадры) : 0.213
Размер потока : 7,50 Гбайт (85%)
Заголовок : www.60-fps.org
Язык : English
Default : Да
Forced : Нет
Основные цвета : BT.601 NTSC
Характеристики трансфера : BT.601
Коэффициенты матрицы : BT.601
colour_range : Limited
Аудио #1
Идентификатор : 2
Формат : AC-3
Формат/Информация : Audio Coding 3
Расширение режима : CM (complete main)
Параметр Endianness формата : Big
Идентификатор кодека : A_AC3
Продолжительность : 2 ч. 2 м.
Вид битрейта : Постоянный
Битрейт : 640 Кбит/сек
Каналы : 6 каналов
Расположение каналов : Front: L C R, Side: L R, LFE
Частота : 48,0 КГц
Битовая глубина : 16 бит
Метод сжатия : С потерями
Размер потока : 562 Мбайт (6%)
Заголовок : Русский
Язык : Russian
Default : Да
Forced : Нет
Аудио #2
Идентификатор : 3
Формат : AC-3
Формат/Информация : Audio Coding 3
Расширение режима : CM (complete main)
Параметр Endianness формата : Big
Идентификатор кодека : A_AC3
Продолжительность : 2 ч. 2 м.
Вид битрейта : Постоянный
Битрейт : 640 Кбит/сек
Каналы : 6 каналов
Расположение каналов : Front: L C R, Side: L R, LFE
Частота : 48,0 КГц
Битовая глубина : 16 бит
Метод сжатия : С потерями
Размер потока : 562 Мбайт (6%)
Заголовок : Deutsch
Язык : German
Default : Нет
Forced : Нет
Текст #1
Идентификатор : 4
Формат : UTF-8
Идентификатор кодека : S_TEXT/UTF8
Идентификатор кодека/Информация : UTF-8 Plain Text
Заголовок : Forced
Язык : Russian
Default : Да
Forced : Нет
Текст #2
Идентификатор : 5
Формат : UTF-8
Идентификатор кодека : S_TEXT/UTF8
Идентификатор кодека/Информация : UTF-8 Plain Text
Заголовок : Forced
Язык : German
Default : Нет
Forced : Нет
Текст #3
Идентификатор : 6
Формат : UTF-8
Идентификатор кодека : S_TEXT/UTF8
Идентификатор кодека/Информация : UTF-8 Plain Text
Заголовок : Full
Язык : German
Default : Нет
Forced : Нет
Меню
00:00:00.000 : de:Chapter 01
00:10:08.916 : de:Chapter 02
00:18:13.333 : de:Chapter 03
00:26:37.250 : de:Chapter 04
00:36:05.375 : de:Chapter 05
00:46:11.166 : de:Chapter 06
00:53:33.791 : de:Chapter 07
01:02:41.416 : de:Chapter 08
01:13:43.958 : de:Chapter 09
01:21:31.208 : de:Chapter 10
01:30:22.625 : de:Chapter 11
01:43:18.333 : de:Chapter 12
01:59:19.875 : de:Chapter 13
02:02:49.666 : de:Chapter 14

Релиз подготовлен 60 - fps

[Цитировать]
breeezze

Ну и какая тля поменяла песню "Океан Эльзы" на другой трек? Вакарчук запретил (что сомнительно) или ватники зассали???

[Цитировать]
breeezze

А в немецкой озвучке Вакарчук есть... WTF!!!!
 
Показать сообщения:    

Текущее время: 05-Дек 01:25

Часовой пояс: UTC + 3


Вы не можете начинать темы
Вы не можете отвечать на сообщения
Вы не можете редактировать свои сообщения
Вы не можете удалять свои сообщения
Вы не можете голосовать в опросах
Вы не можете прикреплять файлы к сообщениям
Вы не можете скачивать файлы