Властелин колец: Трилогия / The Lord of the Rings: Trilogy (2001-2003) BDRip-AVC | Extended Cut | 60 fps Принц Персии: Пески времени / Prince of Persia: The Sands of Time (2010) BDRip 1080p | 60 fps К звёздам / Ad Astra (2019) BDRip 1080p | 60 fps 21 мост / 21 Bridges (2019) BDRip 1080p | 60 fps Достать ножи / Knives Out (2019) BDRip 1080p | 60 fps Удивительное путешествие доктора Дулиттла / Dolittle (2020) BDRip 1080p | 60 fps День, когда Земля остановилась / The Day the Earth Stood Still (2008) BDRip 1080p | 60 fps Паразиты / Gisaengchung (2019) BDRip 1080p | 60 fps
  1. Longevity:
    5 years 11 months
    Posts:
    311
    Gender:
    Male
    Битва Титанов / Clash of the Titans (2010) BDRip 720p | 60fps«Легенды оживают в 3D»- Информация о фильме
    Название: Битва Титанов
    Оригинальное название: Clash of the Titans
    Год выхода: 2010
    Жанр: Фэнтези, боевик, приключения
    Режиссер: Луи Летерье
    В ролях: Сэм Уортингтон, Мадс Миккельсен, Джемма Артертон, Рэйф Файнс, Лиам Нисон, Алекса Давалос, Джейсон Флеминг, Пит Постлетуэйт, Лиам Каннингэм, Ашраф Бархом
    Описание фильма:
    Персей, сын бога, воспитанный человеком, не смог защитить свою семью от Аида, мстительного повелителя подземного мира. Теперь ему уже нечего терять, и он добровольно соглашается возглавить опасную миссию, чтобы одержать победу над Аидом до того, как тот отберет власть у Зевса и выпустит демонов подземного царства на Землю...
    Страна: США
    Студия: Warner Bros. Pictures, Legendary Pictures
    Продолжительность: 01:46:07
    Перевод: Дублированный (Лицензия)
    Субтитры: Вшитые, отключаемые
    Язык субтитров: Русский (Full), Английский (Full)

    Дата мировой премьеры: 1 апреля 2010
    Дата российской премьеры: 8 апреля 2010, «Каро-Премьер»
    Дата выхода DVD релиза: 24 августа 2010, «Юниверсал Пикчерс Рус»
    Дата выхода Blu-Ray релиза: 24 августа 2010, «Юниверсал Пикчерс Рус»
    Файл
    Формат: MKV
    Кодек: MPEG-4 AVC/H.264
    Качество: BDRip 720p
    Видео: ~ 4169 Кбит/сек, 1280 x 544, 59.940 кадров/сек
    Аудио: AC3 5.1, 48.0 KHz, 448 Кбит/сек - Русский

    MediaInfo

    Общее
    Уникальный идентификатор : 226927841508628288693242758146447786365 (0xAAB8B6678EBB8715B3AA61DBA70E417D)
    Полное имя : D:\Торренты\Clash of the Titans 60fps.mkv
    Формат : Matroska
    Версия формата : Version 2
    Размер файла : 3,49 Гбайт
    Продолжительность : 1 ч. 46 м.
    Общий поток : 4710 Кбит/сек
    Название фильма : Clash of the Titans (2010) Blu-ray 3D
    Дата кодирования : UTC 2015-02-21 14:58:04
    Программа кодирования : mkvmerge v6.9.1 ('Blue Panther') 64bit built on Apr 18 2014 18:23:38
    Библиотека кодирования : libebml v1.3.0 + libmatroska v1.4.1
    Видео
    Идентификатор : 1
    Формат : AVC
    Формат/Информация : Advanced Video Codec
    Профиль формата : High@L4.1
    Параметр CABAC формата : Да
    Параметр ReFrames формата : 6 кадров
    Идентификатор кодека : V_MPEG4/ISO/AVC
    Продолжительность : 1 ч. 46 м.
    Битрейт : 4169 Кбит/сек
    Ширина : 1280 пикселей
    Высота : 544 пикселя
    Соотношение сторон : 2,35:1
    Режим частоты кадров : Постоянный
    Частота кадров : 59,880 кадров/сек
    Частота кадров в оригинале : 59,940 кадров/сек
    Цветовое пространство : YUV
    Субдискретизация насыщенности : 4:2:0
    Битовая глубина : 8 бит
    Тип развёртки : Прогрессивная
    Бит/(Пиксели*Кадры) : 0.100
    Размер потока : 3,09 Гбайт (88%)
    Заголовок : Release by mimok
    Библиотека кодирования : x264 core 130 r2273 b3065e6
    Настройки программы : cabac=1 / ref=6 / deblock=1:0:0 / analyse=0x3:0x133 / me=umh / subme=8 / psy=1 / psy_rd=1.00:0.15 / mixed_ref=1 / me_range=20 / chroma_me=1 / trellis=2 / 8x8dct=1 / cqm=0 / deadzone=21,11 / fast_pskip=0 / chroma_qp_offset=-3 / threads=6 / lookahead_threads=2 / sliced_threads=0 / nr=0 / decimate=0 / interlaced=0 / bluray_compat=0 / constrained_intra=0 / bframes=8 / b_pyramid=2 / b_adapt=2 / b_bias=0 / direct=1 / weightb=1 / open_gop=0 / weightp=2 / keyint=250 / keyint_min=25 / scenecut=40 / intra_refresh=0 / rc=crf / mbtree=0 / crf=18.0 / qcomp=0.63 / qpmin=10 / qpmax=51 / qpstep=4 / ip_ratio=1.40 / pb_ratio=1.30 / aq=1:1.20
    Default : Да
    Forced : Нет
    Аудио
    Идентификатор : 2
    Формат : AC-3
    Формат/Информация : Audio Coding 3
    Расширение режима : CM (complete main)
    Параметр Endianness формата : Big
    Идентификатор кодека : A_AC3
    Продолжительность : 1 ч. 46 м.
    Вид битрейта : Постоянный
    Битрейт : 448 Кбит/сек
    Каналы : 6 каналов
    Расположение каналов : Front: L C R, Side: L R, LFE
    Частота : 48,0 КГц
    Битовая глубина : 16 бит
    Метод сжатия : С потерями
    Размер потока : 340 Мбайт (10%)
    Заголовок : Dub
    Язык : Russian
    Default : Да
    Forced : Нет
    Текст #1
    Идентификатор : 3
    Формат : UTF-8
    Идентификатор кодека : S_TEXT/UTF8
    Идентификатор кодека/Информация : UTF-8 Plain Text
    Заголовок : Full
    Язык : Russian
    Default : Да
    Forced : Нет
    Текст #2
    Идентификатор : 4
    Формат : UTF-8
    Идентификатор кодека : S_TEXT/UTF8
    Идентификатор кодека/Информация : UTF-8 Plain Text
    Заголовок : Full
    Язык : English
    Default : Нет
    Forced : Нет

    Скринлист

    Скриншоты:

    Release was prepared by 60 - fps

  2. Longevity:
    4 years 5 months
    Posts:
    3
    Gender:
    Unknown
    встаньте на раздачу!!!
    15-Jun-2016 13:05 (after 1 year 3 months)
  3. Longevity:
    2 years 11 months
    Posts:
    5
    Gender:
    Unknown
    Встаньте плиз на раздачу!
    04-May-2019 11:18 (after 2 years 10 months)


You cannot post new topics in this forum
You cannot reply to topics in this forum
You cannot edit your posts in this forum
You cannot delete your posts in this forum
You cannot vote in polls in this forum
You cannot attach files in this forum
You cannot download files in this forum