[Цитировать]
Kryl

Биркебейнеры / Birkebeinerne (2016) BDRip 720p | 60 fps- Информация
Название: Биркебейнеры
Оригинальное название: Birkebeinerne
Год выхода: 2016
Жанр: Боевик, драма, приключения
Режиссер: Нильс Гёуп
Сценарий: Ravn Lanesskog
Продюсер: Финн Гьердрум, Стейн Б. Квае, Пер Генри Надсен
В ролях: Якоб Офтебро, Кристофер Хивью, Пол Сверре Валхейм Хаген, Торбьорн Харр, Беньямин Хельстад, Николай Ли Кос, Ане Ульмуэн Эверли, Стиг Хенрик Хофф, Теа Софи Лок Нэсс, Андерс Дальберг, Торкель Доммерснес Сульдаль
--Сюжет:
1204 год, Норвегию раздирает гражданская война. Незаконнорожденного сына короля Хокона III Сверрессона и Инги из Вартейга хранят в глубокой тайне. Мальчик был внебрачным сыном короля и родился после его смерти, что спровоцировало кровавую междоусобицу. Биркебейнеры (ополчение, созданное его дедом, королем Сверре Сигурдсоном) признали мальчика наследником трона Норвегии. Однако католические священники объявили охоту на ребенка с целью его уничтожения.
В 1206 году группа вооруженных биркебейнеров помогла Инги и Хокону бежать на север под покровительством короля Инге Бордссона. По пути их небольшой отряд попал в снежную бурю, но два могучих воина, Торстейн Шевла и Шьервальд Шрукка, продолжали продвигаться на лыжах, неся ребенка на руках. Когда Хокона доставили в Тронхейм, король Инге взял его под своё покровительство.
- Страна: Норвегия
Продолжительность: 01:39:25

Файл
Кодек: MPEG4/ISO/AVC H.264
Формат: MKV
Качество: BDRip 720p | 60 fps
Видео: 1280 x 544 (2.353) | 60.000 fps | 8.0 Мбит/сек
Аудио: AC3 | 5.1 | 48 kHz | 640 kbps | 16 bit | Любительский многоголосый (закадровый) |

MedifInfo

Видео
Идентификатор : 1
Формат : AVC
Формат/Информация : Advanced Video Codec
Профиль формата : High@L4.1
Параметр CABAC формата : Да
Параметр ReFrames формата : 3 кадра
Идентификатор кодека : V_MPEG4/ISO/AVC
Продолжительность : 1 ч. 39 м.
Вид битрейта : Переменный
Битрейт : 7704 Кбит/сек
Максимальный битрейт : 8000 Кбит/сек
Ширина : 1280 пикселей
Высота : 544 пикселя
Соотношение сторон : 2,35:1
Режим частоты кадров : Постоянный
Частота кадров : 60,000 кадров/сек
Стандарт вещания : PAL
Цветовое пространство : YUV
Субдискретизация насыщенности : 4:2:0
Битовая глубина : 8 бит
Тип развёртки : Прогрессивная
Бит/(Пиксели*Кадры) : 0.184
Размер потока : 5,35 Гбайт (90%)
Заголовок : www.60-fps.org
Язык : English
Default : Да
Forced : Нет
Основные цвета : BT.601 NTSC
Характеристики трансфера : BT.601
Коэффициенты матрицы : BT.601
colour_range : Limited
Аудио
Идентификатор : 2
Формат : AC-3
Формат/Информация : Audio Coding 3
Расширение режима : CM (complete main)
Параметр Endianness формата : Big
Идентификатор кодека : A_AC3
Продолжительность : 1 ч. 39 м.
Вид битрейта : Постоянный
Битрейт : 640 Кбит/сек
Каналы : 6 каналов
Расположение каналов : Front: L C R, Side: L R, LFE
Частота : 48,0 КГц
Битовая глубина : 16 бит
Метод сжатия : С потерями
Размер потока : 455 Мбайт (8%)
Заголовок : MVO [ColdFilm]
Язык : Russian
Default : Нет
Forced : Нет
Меню
00:00:00.000 : en:Chapter 01
00:09:59.791 : en:Chapter 02
00:19:59.750 : en:Chapter 03
00:29:59.666 : en:Chapter 04
00:39:59.750 : en:Chapter 05
00:49:59.833 : en:Chapter 06
00:59:59.708 : en:Chapter 07
01:09:59.708 : en:Chapter 08
01:19:59.916 : en:Chapter 09
01:29:59.791 : en:Chapter 10
01:39:24.291 : en:Chapter 11

Релиз подготовлен 60 - fps



Последний раз редактировалось: Kryl (2016-07-15 06:54), всего редактировалось 1 раз

Топик был перенесен из форума Новинки КиноПроката 60 FPS в форум Зарубежные фильмы 60 FPS
Kryl

[Цитировать]
ENIGMA

Большое Спасибо! Улыбаюсь
 
Показать сообщения:    

Текущее время: 21-Сен 04:30

Часовой пояс: UTC + 3


Вы не можете начинать темы
Вы не можете отвечать на сообщения
Вы не можете редактировать свои сообщения
Вы не можете удалять свои сообщения
Вы не можете голосовать в опросах
Вы не можете прикреплять файлы к сообщениям
Вы не можете скачивать файлы