Властелин колец: Трилогия / The Lord of the Rings: Trilogy (2001-2003) BDRip-AVC | Extended Cut | 60 fps Принц Персии: Пески времени / Prince of Persia: The Sands of Time (2010) BDRip 1080p | 60 fps Достать ножи / Knives Out (2019) BDRip 1080p | 60 fps День, когда Земля остановилась / The Day the Earth Stood Still (2008) BDRip 1080p | 60 fps К звёздам / Ad Astra (2019) BDRip 1080p | 60 fps Удивительное путешествие доктора Дулиттла / Dolittle (2020) BDRip 1080p | 60 fps Однажды в… Голливуде / Once Upon a Time... in Hollywood (2019) BDRip 1080p | 60 fps Паразиты / Gisaengchung (2019) BDRip 1080p | 60 fps
  1. Longevity:
    5 years 11 months
    Posts:
    2419
    Gender:
    Male
    Бинго Бонго / Bingo Bongo (1982) HDTVRip 1080p | 60 fps- Информация
    Название: Бинго Бонго
    Оригинальное название: Bingo Bongo
    Год выхода: 1982
    Жанр: Комедия
    Режиссер: Паскуале Феста Кампаниле
    Сценарий: Франко Феррини, Энрико Олдоини, Франко Маротта
    Продюсер: Марио Чекки Гори, Витторио Чекки Гори
    В ролях: дриано Челентано, Кароль Буке, Феличе Андреази, Энцо Робутти, Вальтер Д’Аморе, Роберто Марелли, Альфио Патане, Элизабет Коббен, Маурицио Табани, Марио Барилла
    --Сюжет:
    Человек-обезьяна, найденный где-то в джунглях Конго, перевезен в Милан и назван Бинго-Бонго. Одна лишь Лаура, женщина-антрополог, верит в человеческие качества этого необузданного полуживотного, и их привязанность друг к другу даже перерастает в любовь.- Страна: Италия, Германия (ФРГ)
    Продолжительность: 01:41:29

    Файл
    Кодек: MPEG4/ISO/AVC H.264
    Формат: MKV
    Качество: HDTVRip 1080p | 60 fps
    Видео: 1920 x 1032 (1.860) | 60.000 fps | 15.0 Мбит/сек
    Аудио 1: AC3 | 5.1 | 48 kHz | 192 kbps | 16 bit | Профессиональный двухголосый закадровый |
    Аудио 2: AC3 | 5.1 | 48 kHz | 192 kbps | 16 bit | ITA |

    MedifInfo

    Видео
    Идентификатор : 1
    Формат : AVC
    Формат/Информация : Advanced Video Codec
    Профиль формата : High@L4.1
    Параметр CABAC формата : Да
    Параметр ReFrames формата : 4 кадра
    Идентификатор кодека : V_MPEG4/ISO/AVC
    Продолжительность : 1 ч. 41 м.
    Битрейт : 15,0 Мбит/сек
    Ширина : 1920 пикселей
    Высота : 1032 пикселя
    Соотношение сторон : 1,85:1
    Режим частоты кадров : Постоянный
    Частота кадров : 60,000 кадров/сек
    Цветовое пространство : YUV
    Субдискретизация насыщенности : 4:2:0
    Битовая глубина : 8 бит
    Тип развёртки : Прогрессивная
    Бит/(Пиксели*Кадры) : 0.126
    Размер потока : 10,4 Гбайт (96%)
    Заголовок : www.60-fps.org
    Библиотека кодирования : x264 core 148 r2638 7599210
    Настройки программы : cabac=1 / ref=4 / deblock=1:-3:-3 / analyse=0x3:0x113 / me=umh / subme=8 / psy=1 / psy_rd=1.00:0.25 / mixed_ref=1 / me_range=32 / chroma_me=1 / trellis=1 / 8x8dct=1 / cqm=0 / deadzone=6,6 / fast_pskip=1 / chroma_qp_offset=-4 / threads=12 / lookahead_threads=2 / sliced_threads=0 / nr=0 / decimate=0 / interlaced=0 / bluray_compat=0 / constrained_intra=0 / bframes=3 / b_pyramid=2 / b_adapt=2 / b_bias=0 / direct=3 / weightb=1 / open_gop=0 / weightp=2 / keyint=600 / keyint_min=60 / scenecut=40 / intra_refresh=0 / rc_lookahead=50 / rc=2pass / mbtree=1 / bitrate=14999 / ratetol=1.0 / qcomp=0.80 / qpmin=0 / qpmax=69 / qpstep=4 / cplxblur=20.0 / qblur=0.5 / vbv_maxrate=62500 / vbv_bufsize=78125 / nal_hrd=none / filler=0 / ip_ratio=1.10 / aq=1:0.50
    Default : Да
    Forced : Нет
    Аудио #1
    Идентификатор : 2
    Формат : AC-3
    Формат/Информация : Audio Coding 3
    Расширение режима : CM (complete main)
    Параметр Endianness формата : Big
    Идентификатор кодека : A_AC3
    Продолжительность : 1 ч. 41 м.
    Вид битрейта : Постоянный
    Битрейт : 192 Кбит/сек
    Каналы : 2 канала
    Расположение каналов : Front: L R
    Частота : 48,0 КГц
    Битовая глубина : 16 бит
    Метод сжатия : С потерями
    Размер потока : 139 Мбайт (1%)
    Заголовок : Профессиональный (двухголосый закадровый)
    Язык : Russian
    Default : Да
    Forced : Нет
    Аудио #2
    Идентификатор : 3
    Формат : AC-3
    Формат/Информация : Audio Coding 3
    Расширение режима : CM (complete main)
    Параметр Endianness формата : Big
    Идентификатор кодека : A_AC3
    Продолжительность : 1 ч. 41 м.
    Вид битрейта : Постоянный
    Битрейт : 192 Кбит/сек
    Каналы : 2 канала
    Расположение каналов : Front: L R
    Частота : 48,0 КГц
    Битовая глубина : 16 бит
    Метод сжатия : С потерями
    Размер потока : 139 Мбайт (1%)
    Заголовок : Ita
    Язык : Italian
    Default : Нет
    Forced : Нет
    Сделано по заказу пользователя bushka00

    Release was prepared by 60 - fps

  2. Longevity:
    5 years 1 month
    Posts:
    149
    Gender:
    Male
    Большое Спасибо Овации
    25-Dec-2016 10:44 (after 7 minutes)
  3. Longevity:
    5 years 11 months
    Posts:
    2419
    Gender:
    Male
    7129Большое Спасибо Овации
    Пожалуйста .
    25-Dec-2016 10:45 (after 1 minute)
  4. Longevity:
    3 years 11 months
    Posts:
    110
    Gender:
    Male
    Глупая и скучная комедия какая-то...
    29-Dec-2016 21:13 (after 4 days)
  5. Longevity:
    4 years 9 months
    Posts:
    2
    Gender:
    Unknown
    встаньте пожалуйста на раздачу
    20-Jan-2017 23:05 (after 22 days)
  6. Longevity:
    4 years
    Posts:
    4
    Gender:
    Unknown
    НА раздачу встаньте кто-нибудь ! Грущу
    26-Jan-2017 23:32 (after 6 days)
  7. Longevity:
    5 years 10 months
    Posts:
    33
    Gender:
    Male
    Качайте раздаю Улыбаюсь
    28-Jan-2017 06:30 (after 1 day 6 hours)
  8. Longevity:
    3 years 6 months
    Posts:
    21
    Gender:
    Male
    Люди добрые , встаньте пожалуйста на раздачу, чуть меньше половины осталось докачать.
    07-Jun-2017 09:10 (after 4 months 10 days)


You cannot post new topics in this forum
You cannot reply to topics in this forum
You cannot edit your posts in this forum
You cannot delete your posts in this forum
You cannot vote in polls in this forum
You cannot attach files in this forum
You cannot download files in this forum