[Цитировать]
Талямба

Информация
Название: BIG ASS CHICKS IN ACTION
Год выхода: 2017
Жанр: Anal Cumshot Big Dick Threesome Lingerie Brunette Big Ass Pornstar
В ролях: Keisha Grey Bella Danger
--Сюжет:
Big Ass Dick Anal Threesome Sex Bella danger Encoded Brunette Lingerie Cumshot
Страна: США
Продолжительность: 00:33:47

Файл
Кодек: MPEG4/ISO/AVC High@L4.1
Формат: MP4
Качество: Full HD 1080p 60 fps
Видео: 1920 x 1080 (1.778) | 60.000 fps | 5000 Кбит/сек
Аудио: AAC | 2.0 | 48 kHz |135 Кбит/сек | 16 bit | ENG |

MedifInfo

Видео
Идентификатор : 1
Формат : AVC
Формат/Информация : Advanced Video Codec
Профиль формата : High@L4.1
Параметр CABAC формата : Да
Параметр ReFrames формата : 4 кадра
Идентификатор кодека : avc1
Идентификатор кодека/Информация : Advanced Video Coding
Продолжительность : 33 м. 47 с.
Битрейт : 5000 Кбит/сек
Ширина : 1920 пикселей
Высота : 1080 пикселей
Соотношение сторон : 16:9
Режим частоты кадров : Постоянный
Частота кадров : 60,000 кадров/сек
Цветовое пространство : YUV
Субдискретизация насыщенности : 4:2:0
Битовая глубина : 8 бит
Тип развёртки : Прогрессивная
Бит/(Пиксели*Кадры) : 0.040
Размер потока : 1,19 Гбайт (97%)
Библиотека кодирования : x264 core 148 r209 7599210
Настройки программы : cabac=1 / ref=4 / deblock=1:-1:-1 / analyse=0x3:0x133 / me=umh / subme=9 / psy=1 / psy_rd=1.00:0.15 / mixed_ref=1 / me_range=16 / chroma_me=1 / trellis=2 / 8x8dct=1 / cqm=0 / deadzone=21,11 / fast_pskip=1 / chroma_qp_offset=-3 / threads=4 / lookahead_threads=1 / sliced_threads=0 / nr=0 / decimate=1 / interlaced=0 / bluray_compat=0 / constrained_intra=0 / bframes=3 / b_pyramid=2 / b_adapt=2 / b_bias=0 / direct=3 / weightb=1 / open_gop=0 / weightp=2 / keyint=250 / keyint_min=25 / scenecut=0 / intra_refresh=0 / rc_lookahead=60 / rc=abr / mbtree=1 / bitrate=5000 / ratetol=1.0 / qcomp=0.60 / qpmin=0 / qpmax=69 / qpstep=4 / ip_ratio=1.40 / aq=1:1.00
Аудио
Идентификатор : 2
Формат : AAC
Формат/Информация : Advanced Audio Codec
Профиль формата : LC
Идентификатор кодека : 40
Продолжительность : 33 м. 47 с.
Вид битрейта : Постоянный
Битрейт : 135 Кбит/сек
Каналы : 2 канала
Расположение каналов : Front: L R
Частота : 44,1 КГц
Частота кадров : 43,066 кадра/сек (1024 spf)
Метод сжатия : С потерями
Размер потока : 32,7 Мбайт (3%)
Default : Да
Alternate group : 1

Скрин

[Цитировать]
Талямба

прощу прощения за не высокую скорость Ожидание ,по техническим причинам могу раздавать только так Грущу ,но после 10 часов утра,обещаю стать на 100 мега.битную раздачу... Подмигиваю

[Цитировать]
anonimgo

оказывается видео из 2015 г.

[Цитировать]
Талямба

anonimgo, а ты отслеживаешь выпуск новинок с самого 2015 года... Смеюсь
Видос понравился,ставь лайк,какая разница какого года видос,может это римейк переснятый,другим режисёром... Подмигиваю

[Цитировать]
Kryl

может это римейк переснятый,другим режисёром
Смеюсь Смеюсь Смеюсь

[Цитировать]
Taganiyaz

Сообщение появиться после проверки модератором
 
Показать сообщения:    

Текущее время: 21-Сен 15:30

Часовой пояс: UTC + 3


Вы не можете начинать темы
Вы не можете отвечать на сообщения
Вы не можете редактировать свои сообщения
Вы не можете удалять свои сообщения
Вы не можете голосовать в опросах
Вы не можете прикреплять файлы к сообщениям
Вы не можете скачивать файлы