Топ Топиков за 24 часа
 
Валериан и город тысячи планет / Valerian and the City of a Thousand Planets (2017) BDRip 1080p | 60 fps Валериан и город тысячи планет / Valerian and the City of a Thousand Planets (2017) BDRip 720p | 60 fps Удача Логана / Logan Lucky (2017) BDRip 720p | 60 fps Дюнкерк / Dunkirk (2017) BDRip 1080p | IMAX | 60 fps Джунгли / Jungle (2017) BDRip 1080p | 60 fps Телохранитель киллера / The Hitman's Bodyguard (2017) BDRip 1080p | 60 fps Гоголь. Начало (2017) BDRip 1080p | 60 fps Заклятье. Наши дни / The Crucifixion (2017) BDRip 720p | 60 fps Сделано в Америке / American Made (2017) BDRip 1080p | 60 fps Время первых (2017) BDRip 720p | GER Transfer | 60 fps Калифорнийский дорожный патруль / CHIPS (2017) BDRip 720p | 60 fps Телохранитель киллера / The Hitman's Bodyguard (2017) BDRip 720p | 60 fps
  1. Стаж:
    3 года 2 месяца
    Сообщений:
    2116
    Пол:
    Мужской
     
    «Званый гость хуже незваного» Информация
    Название: Безумные соседи
    Оригинальное название: À bras ouverts
    Год выхода: 2017
    Жанр: Комедия
    Режиссер: Филипп де Шоврон
    Сценарий: Ги Лоран, Марк Де Шоврон, Филипп де Шоврон
    Продюсер: Кристиан Клавье, Патрис Леду, Серж де Пук
    В ролях: Кристиан Клавье, Эри Абиттан, Эльза Зильберштейн, Сириль Леконт, Нану Гарсия, Оскар Берт, Мирела Николау, София Мануша, Иоана Висалон, Никита Драгомир

    Сюжет:
    В запале предвыборных дебатов рафинированный буржуа Жан-Этьен Фужероль неосторожно бросает с экрана телевизора, что его любимая Франция открыта для любых иммигрантов, они повсюду найдут себе кров и еду, даже в его доме. Не проходит и суток, как у его ворот появляется цыганский табор во главе с наглецом Бабиком. Не пустить — потерять голоса избирателей. Размеренной семейной жизни приходит конец: нежданные гости плавают в крытом бассейне, устраивают концерты во дворе, обживают хозяйский туалет, пьют коллекционные вина и даже пытаются приударить за женой Жан-Этьена.

    Страна: Франция, Бельгия
    Продолжительность: 01:32:13

    Файл
    Кодек: H.264
    Формат: MKV
    Качество: BDRip 720p | 60 fps
    Видео: 1280 x 690 (1.855) | 60.000 fps | 10.0 Мбит/сек
    Аудио 01: AC3 | 5.1 | 48 kHz | 384 kbps | 16 bit | Дубляж - iTunes |
    Аудио 02: AC3 | 5.1 | 48 kHz | 448 kbps | 16 bit | FRE |

    MedifInfo

    Видео
    Идентификатор : 1
    Формат : AVC
    Формат/Информация : Advanced Video Codec
    Профиль формата : High@L4.1
    Параметр CABAC формата : Да
    Параметр ReFrames формата : 5 кадров
    Идентификатор кодека : V_MPEG4/ISO/AVC
    Продолжительность : 1 ч. 32 м.
    Битрейт : 9999 Кбит/сек
    Ширина : 1280 пикселей
    Высота : 690 пикселей
    Соотношение сторон : 1,85:1
    Режим частоты кадров : Постоянный
    Частота кадров : 60,000 кадров/сек
    Цветовое пространство : YUV
    Субдискретизация насыщенности : 4:2:0
    Битовая глубина : 8 бит
    Тип развёртки : Прогрессивная
    Бит/(Пиксели*Кадры) : 0.189
    Размер потока : 6,29 Гбайт (90%)
    Заголовок : www.60-fps.org
    Библиотека кодирования : x264 core 152 r2851 ba24899
    Настройки программы : cabac=1 / ref=5 / deblock=1:-3:-3 / analyse=0x3:0x113 / me=hex / subme=8 / psy=1 / psy_rd=1.00:0.25 / mixed_ref=1 / me_range=16 / chroma_me=1 / trellis=2 / 8x8dct=1 / cqm=0 / deadzone=6,6 / fast_pskip=1 / chroma_qp_offset=-4 / threads=12 / lookahead_threads=2 / sliced_threads=0 / nr=0 / decimate=0 / interlaced=0 / bluray_compat=0 / constrained_intra=0 / bframes=3 / b_pyramid=2 / b_adapt=1 / b_bias=0 / direct=3 / weightb=1 / open_gop=0 / weightp=2 / keyint=600 / keyint_min=59 / scenecut=40 / intra_refresh=0 / rc_lookahead=50 / rc=2pass / mbtree=1 / bitrate=9999 / ratetol=1.0 / qcomp=0.80 / qpmin=0 / qpmax=69 / qpstep=4 / cplxblur=20.0 / qblur=0.5 / vbv_maxrate=62500 / vbv_bufsize=78125 / nal_hrd=none / filler=0 / ip_ratio=1.10 / aq=1:0.50
    Default : Да
    Forced : Нет
    Аудио #1
    Идентификатор : 2
    Формат : AC-3
    Формат/Информация : Audio Coding 3
    Расширение режима : CM (complete main)
    Параметр Endianness формата : Big
    Идентификатор кодека : A_AC3
    Продолжительность : 1 ч. 32 м.
    Вид битрейта : Постоянный
    Битрейт : 384 Кбит/сек
    Каналы : 6 каналов
    Расположение каналов : Front: L C R, Side: L R, LFE
    Частота : 48,0 КГц
    Битовая глубина : 16 бит
    Метод сжатия : С потерями
    Размер потока : 253 Мбайт (4%)
    Заголовок : Дубляж - iTunes
    Язык : Russian
    Default : Да
    Forced : Нет
    Аудио #2
    Идентификатор : 3
    Формат : AC-3
    Формат/Информация : Audio Coding 3
    Расширение режима : CM (complete main)
    Параметр Endianness формата : Big
    Идентификатор кодека : A_AC3
    Продолжительность : 1 ч. 32 м.
    Вид битрейта : Постоянный
    Битрейт : 448 Кбит/сек
    Каналы : 6 каналов
    Расположение каналов : Front: L C R, Side: L R, LFE
    Частота : 48,0 КГц
    Битовая глубина : 16 бит
    Метод сжатия : С потерями
    Размер потока : 296 Мбайт (4%)
    Заголовок : FRE
    Язык : French
    Default : Нет
    Forced : Нет
    Меню
    00:00:00.000 : fr:Chapitre 01
    00:07:40.500 : fr:Chapitre 02
    00:13:22.375 : fr:Chapitre 03
    00:21:33.625 : fr:Chapitre 04
    00:27:51.875 : fr:Chapitre 05
    00:35:08.083 : fr:Chapitre 06
    00:42:06.458 : fr:Chapitre 07
    00:51:13.458 : fr:Chapitre 08
    00:57:47.416 : fr:Chapitre 09
    01:03:44.541 : fr:Chapitre 10
    01:13:09.333 : fr:Chapitre 11
    01:24:02.750 : fr:Chapitre 12

    Релиз подготовлен 60 - fps

  2. Стаж:
    1 год 3 месяца
    Сообщений:
    303
    Пол:
    Мужской
     
    Сомневаюсь А что с раздачей... ?
    09-Дек-2017 23:47 (спустя 3 дня)
  3. Стаж:
    3 года 2 месяца
    Сообщений:
    2116
    Пол:
    Мужской
     
    ПК спит, устал...))) завтра запущу..
    10-Дек-2017 00:00 (спустя 12 минут)


Вы не можете начинать темы
Вы не можете отвечать на сообщения
Вы не можете редактировать свои сообщения
Вы не можете удалять свои сообщения
Вы не можете голосовать в опросах
Вы не можете прикреплять файлы к сообщениям
Вы не можете скачивать файлы