[Цитировать]
Талямба

Фильм «Больше никаких правил» Фильм- Информация
Название: Без компромиссов
Оригинальное название: Blitz
Год выхода: 2011
Жанр: триллер, криминал
Режиссер: Эллиотт Лестер
Сценарий: Нэйтан Паркер, Кен Бруен
Продюсер: Стив Чесман, Зиги Камаса, Дональд Кушнер
В ролях: Джейсон Стэйтем,Пэдди Консидайн,Эйдан Гиллен,Зэйв Эштон,Дэвид Моррисси,Нед Деннехи,Марк Райлэнс,Люк Эванс,Никки Хенсон,Стивен Харвуд-Браун
--Сюжет:
Семь или восемь? Не в граммах, а в полицейских!.. Именно этим вопросом задается лондонский маньяк, решивший прославиться. Выбрав себе для первых полос таблоидов звучный псевдоним Блиц и вооружившись молотком, Барри Вайс выходит на улицы. И теперь главному герою придется спасать свою шкуру и пытаться остановить сумасшедшего убийцу…-- Страна: Великобритания, Франция, США
Продолжительность: 01:37:38

Файл
Кодек: MPEG4/ISO/AVC H.264/High@L4.1
Формат: MKV
Качество: BDRip 720p | 60 fps
Видео: 1280 x 544 (2.353) | 59.940 fps | 5128 Кбит/сек
Аудио 1: AC3 | 5.1 | 48 kHz | 384 Кбит/сек | 16 bit | Дубляж
Субтитры: НЕТ

MedifInfo

Видео
Идентификатор : 1
Формат : AVC
Формат/Информация : Advanced Video Codec
Профиль формата : High@L4.1
Параметр CABAC формата : Да
Параметр ReFrames формата : 4 кадра
Идентификатор кодека : V_MPEG4/ISO/AVC
Продолжительность : 1 ч. 37 м.
Битрейт : 5128 Кбит/сек
Ширина : 1280 пикселей
Высота : 544 пикселя
Соотношение сторон : 2,35:1
Режим частоты кадров : Постоянный
Частота кадров : 59,940 кадров/сек
Цветовое пространство : YUV
Субдискретизация насыщенности : 4:2:0
Битовая глубина : 8 бит
Тип развёртки : Прогрессивная
Бит/(Пиксели*Кадры) : 0.123
Размер потока : 3,42 Гбайт (91%)
Заголовок : Blitz (2011) BDRip 720p (60 Fps).mkv
Библиотека кодирования : x264 core 130 r2273 b3065e6
Настройки программы : cabac=1 / ref=4 / deblock=1:-2:-2 / analyse=0x3:0x113 / me=umh / subme=8 / psy=1 / psy_rd=1.00:0.10 / mixed_ref=1 / me_range=24 / chroma_me=1 / trellis=2 / 8x8dct=1 / cqm=0 / deadzone=21,11 / fast_pskip=1 / chroma_qp_offset=-3 / threads=3 / lookahead_threads=1 / sliced_threads=0 / nr=0 / decimate=1 / interlaced=0 / bluray_compat=0 / constrained_intra=0 / bframes=4 / b_pyramid=2 / b_adapt=2 / b_bias=0 / direct=3 / weightb=1 / open_gop=0 / weightp=2 / keyint=250 / keyint_min=25 / scenecut=40 / intra_refresh=0 / rc_lookahead=50 / rc=2pass / mbtree=1 / bitrate=5128 / ratetol=1.0 / qcomp=0.60 / qpmin=0 / qpmax=69 / qpstep=4 / cplxblur=20.0 / qblur=0.5 / ip_ratio=1.40 / aq=1:1.00
Язык : English
Default : Да
Forced : Нет
Аудио
Идентификатор : 2
Формат : AC-3
Формат/Информация : Audio Coding 3
Расширение режима : CM (complete main)
Параметр Endianness формата : Big
Идентификатор кодека : A_AC3
Продолжительность : 1 ч. 37 м.
Вид битрейта : Постоянный
Битрейт : 384 Кбит/сек
Каналы : 6 каналов
Расположение каналов : Front: L C R, Side: L R, LFE
Частота : 48,0 КГц
Частота кадров : 31,250 кадров/сек (1536 spf)
Битовая глубина : 16 бит
Метод сжатия : С потерями
Размер потока : 268 Мбайт (7%)
Заголовок : Dub
Язык : Russian
Default : Да
Forced : Нет
Меню
00:00:00.000 : en:Chapter 1
00:08:44.315 : en:Chapter 2
00:16:29.780 : en:Chapter 3
00:23:39.960 : en:Chapter 4
00:31:07.198 : en:Chapter 5
00:40:13.869 : en:Chapter 6
00:48:02.713 : en:Chapter 7
00:55:24.612 : en:Chapter 8
01:03:44.570 : en:Chapter 9
01:11:32.830 : en:Chapter 10
01:20:07.969 : en:Chapter 11
01:32:12.527 : en:Chapter 12


Последний раз редактировалось: Талямба (2017-10-09 14:35), всего редактировалось 1 раз

[Цитировать]
amjadSX

Great Upload! Подмигиваю

[Цитировать]
Талямба

amjadSX, 1 час или 2 часа - стану на раздачу,пока что веду работу по замене дисков на сервере... Подмигиваю
 
Показать сообщения:    

Текущее время: 18-Окт 13:56

Часовой пояс: UTC + 3


Вы не можете начинать темы
Вы не можете отвечать на сообщения
Вы не можете редактировать свои сообщения
Вы не можете удалять свои сообщения
Вы не можете голосовать в опросах
Вы не можете прикреплять файлы к сообщениям
Вы не можете скачивать файлы