1. Longevity:
    7 years 1 month
    Posts:
    2422
    Gender:
    Male
    - Танец Beyoncé - Haunted (2014) BDRip 1080p | 60 fps Танец- -Информация о Клипе
    Исполнитель: Beyoncé
    Название: Haunted
    Год выхода: 2014
    Продолжительность: 00:05:20-Файл
    Кодек: MPEG4/ISO/AVC/ H.264
    Формат: MKV
    Качество: BDRip 1080p | 60 fps
    Видео : 1920 x 1080 (1.778)| 59.940 fps 35.0 Мбит/сек
    Аудио 1: AC-3 | 640 Кбит/сек | 48.0 KHz | 5.1 ch | 16 bit

    MediaInfo

    Общее
    Уникальный идентификатор : 202019530845259246236089663189826631519 (0x97FB8BDF9940CFE0AFBE66BE9BFB775F)
    Полное имя : H:\Clips\Beyonce - Haunted.mkv
    Формат : Matroska
    Версия формата : Version 2
    Размер файла : 1,33 Гбайт
    Продолжительность : 5 м. 20 с.
    Общий поток : 35,6 Мбит/сек
    Дата кодирования : UTC 2021-11-18 22:47:49
    Программа кодирования : mkvmerge v5.8.0 ('No Sleep / Pillow') built on Sep 2 2012 15:37:04
    Библиотека кодирования : libebml v1.2.3 + libmatroska v1.3.0
    Видео
    Идентификатор : 1
    Формат : AVC
    Формат/Информация : Advanced Video Codec
    Профиль формата : High@L4.1
    Параметр CABAC формата : Да
    Параметр ReFrames формата : 4 кадра
    Режим смешивания : Header stripping
    Идентификатор кодека : V_MPEG4/ISO/AVC
    Продолжительность : 5 м. 20 с.
    Битрейт : 35,0 Мбит/сек
    Ширина : 1920 пикселей
    Высота : 1080 пикселей
    Соотношение сторон : 16:9
    Режим частоты кадров : Постоянный
    Частота кадров : 59,940 (60000/1001) кадров/сек
    Цветовое пространство : YUV
    Субдискретизация насыщенности : 4:2:0
    Битовая глубина : 8 бит
    Тип развёртки : Прогрессивная
    Бит/(Пиксели*Кадры) : 0.282
    Размер потока : 1,28 Гбайт (96%)
    Библиотека кодирования : x264 core 146 r2538 121396c
    Настройки программы : cabac=1 / ref=4 / deblock=1:0:0 / analyse=0x3:0x113 / me=umh / subme=8 / psy=1 / psy_rd=1.00:0.25 / mixed_ref=1 / me_range=32 / chroma_me=1 / trellis=1 / 8x8dct=1 / cqm=0 / deadzone=6,6 / fast_pskip=1 / chroma_qp_offset=-4 / threads=12 / lookahead_threads=3 / sliced_threads=0 / nr=0 / decimate=0 / interlaced=0 / bluray_compat=0 / constrained_intra=0 / bframes=3 / b_pyramid=2 / b_adapt=2 / b_bias=0 / direct=3 / weightb=1 / open_gop=0 / weightp=2 / keyint=600 / keyint_min=60 / scenecut=40 / intra_refresh=0 / rc_lookahead=50 / rc=2pass / mbtree=1 / bitrate=35000 / ratetol=1.0 / qcomp=0.80 / qpmin=0 / qpmax=69 / qpstep=4 / cplxblur=20.0 / qblur=0.5 / vbv_maxrate=50000 / vbv_bufsize=50000 / nal_hrd=none / filler=0 / ip_ratio=1.10 / aq=1:0.50
    Язык : English
    Default : Да
    Forced : Нет
    Аудио
    Идентификатор : 2
    Формат : AC-3
    Формат/Информация : Audio Coding 3
    Расширение режима : CM (complete main)
    Параметр Endianness формата : Big
    Режим смешивания : Header stripping
    Идентификатор кодека : A_AC3
    Продолжительность : 5 м. 20 с.
    Вид битрейта : Постоянный
    Битрейт : 640 Кбит/сек
    Каналы : 6 каналов
    Расположение каналов : Front: L C R, Side: L R, LFE
    Частота : 48,0 КГц
    Частота кадров : 31,250 кадров/сек (1536 spf)
    Битовая глубина : 16 бит
    Метод сжатия : С потерями
    Размер потока : 24,4 Мбайт (2%)
    Default : Да
    Forced : Нет

    Release was prepared by 60-fps.org

  2. Longevity:
    7 years
    Posts:
    50
    Gender:
    Male
    Спасибо. Это уровень!!! Вдвойне приятнее, когда можно сравнить свою работу с Вашей.
    02-Jul-2016 20:00 (after 1 day 4 hours)
  3. Longevity:
    7 months 17 days
    Posts:
    1
    Gender:
    Unknown
    hanks
    10-Apr-2021 08:24 (after 4 years 9 months)


You cannot post new topics in this forum
You cannot reply to topics in this forum
You cannot edit your posts in this forum
You cannot delete your posts in this forum
You cannot vote in polls in this forum
You cannot attach files in this forum
You cannot download files in this forum