Стражи Галактики. Часть 2 / Guardians of the Galaxy Vol. 2 (2017) BDRip 1080p | 60 fps Пираты Карибского моря: Мертвецы не рассказывают сказки / Pirates of the Caribbean: Dead Men Tell No Tales (2017) BDRip 1080p | 60 fps Человек-паук: Возвращение домой / Spider-Man: Homecoming (2017) BDRip 1080p | 60 fps Валериан и город тысячи планет / Valerian and the City of a Thousand Planets (2017) BDRip 1080p | 60 fps Мстители: Эра Альтрона / Avengers: Age of Ultron (2015) BDRip 1080p | 60 fps Тор: Рагнарёк / Thor: Ragnarok (2017) BDRip 1080p | 60 fps Тёмная башня / The Dark Tower (2017) BDRip 720p | 60 fps Форсаж 8 / The Fate of the Furious (2017) BDRip 1080p | 60 fps
  1. Стаж:
    3 года 6 месяцев
    Сообщений:
    2288
    Пол:
    Мужской

    Бэтмен

    -Название: Бэтмен
    Оригинальное название: Batman
    Год выпуска: 1989
    Страна: США, Великобритания
    Жанр: фантастика, боевик, триллер, криминал[/url]
    Продолжительность: 02:06:19
    Перевод: Дубляж
    Субтитры: русские (Полные), английские (Полные)-Режиссер: Тим Бёртон / Tim Burton-В ролях: Майкл Китон (Batman / Bruce Wayne), Джек Николсон (Joker / Jack Napier), Ким Бейсингер (Vicki Vale), Роберт Вул (Alexander Knox), Пэт Хингл (Commissioner James Gordon), Билли Ди Уильямс (Harvey Dent), Майкл Гоф (Alfred Pennyworth), Джек Пэланс (Carl Grissom), Джерри Холл (Alicia Hunt), Трейси Уолтер (Bob the Goon), Ли Уоллес (The Mayor), Уильям Хуткинс (Lt. Eckhardt)-Описание:
    В раннем детстве юный наследник Брюс Уэйн стал свидетелем убийства своих родителей и после этого стал ненавидеть преступность. В Готэме все чаще случались насилия, ограбления и убийства. В трудное для города время появляется герой, способный укротить любого преступника и заставить его бежать в страхе. Таинственный мститель, герой по прозвищу «Бэтмен», встал на защиту слабых и начал свою борьбу с преступниками. Раскрыть таинственность героя, узнать кто скрывается за маской героя хотят журналистка Вики Вейл и репортер Нокс. Тем временем один из преступников уходя от полицейской погони упал в чан с химикатами и превратился в Джокера, который стал угрозой для города. Только Бэтмен может ему помешать...-Рейтинг

    imdb.com: 7.60 (242 378)
    MPAA: PG-13 - Детям до 13 лет просмотр не желателен-Качество: BDRip-AVC 60fps
    Формат: MKV
    Видео кодек: AVC
    Аудио кодек:AC3
    Видео: AVC, 1024x576 (16:9), 4030 kbps, 59,940 fps, 0,114 bpp
    Аудио: русский / AC3 / 5.1 / 48 kHz / 448 kbps / 16 bit |Дубляж|
    Навигация по главам: есть- -

    MI

    Video
    ID : 1
    Format : AVC
    Format/Info : Advanced Video Codec
    Format profile : High@L4.1
    Format settings, CABAC : Yes
    Format settings, ReFrames : 4 frames
    Codec ID : V_MPEG4/ISO/AVC
    Duration : 2h 6mn
    Bit rate : 4 030 Kbps
    Width : 1 024 pixels
    Height : 576 pixels
    Display aspect ratio : 16:9
    Frame rate : 59.940 fps
    Color space : YUV
    Chroma subsampling : 4:2:0
    Bit depth : 8 bits
    Scan type : Progressive
    Bits/(Pixel*Frame) : 0.114
    Stream size : 3.48 GiB (88%)
    Title : TIberiumsun69
    Writing library : x264 core 146 r2538 121396c
    Encoding settings : cabac=1 / ref=3 / deblock=1:0:0 / analyse=0x3:0x113 / me=umh / subme=11 / psy=1 / psy_rd=1.00:0.10 / mixed_ref=1 / me_range=32 / chroma_me=1 / trellis=2 / 8x8dct=1 / cqm=0 / deadzone=21,11 / fast_pskip=0 / chroma_qp_offset=-3 / threads=12 / lookahead_threads=3 / sliced_threads=0 / nr=0 / decimate=1 / interlaced=0 / bluray_compat=0 / constrained_intra=0 / bframes=16 / b_pyramid=2 / b_adapt=2 / b_bias=0 / direct=3 / weightb=1 / open_gop=0 / weightp=2 / keyint=600 / keyint_min=59 / scenecut=40 / intra_refresh=0 / rc_lookahead=60 / rc=2pass / mbtree=1 / bitrate=4030 / ratetol=1.0 / qcomp=0.60 / qpmin=0 / qpmax=69 / qpstep=4 / cplxblur=20.0 / qblur=0.5 / vbv_maxrate=50000 / vbv_bufsize=62500 / nal_hrd=none / filler=0 / ip_ratio=1.40 / aq=1:1.00
    Language : English
    Default : Yes
    Forced : No
    Audio
    ID : 2
    Format : AC-3
    Format/Info : Audio Coding 3
    Mode extension : CM (complete main)
    Codec ID : A_AC3
    Duration : 2h 6mn
    Bit rate mode : Constant
    Bit rate : 448 Kbps
    Channel(s) : 6 channels
    Channel positions : Front: L C R, Side: L R, LFE
    Sampling rate : 48.0 KHz
    Bit depth : 16 bits
    Compression mode : Lossy
    Stream size : 405 MiB (10%)
    Title : Дубляж
    Language : Russian
    Default : Yes
    Forced : No
    Text #1
    ID : 3
    Format : UTF-8
    Codec ID : S_TEXT/UTF8
    Codec ID/Info : UTF-8 Plain Text
    Title : Полные
    Language : Russian
    Default : No
    Forced : No
    Text #2
    ID : 4
    Format : UTF-8
    Codec ID : S_TEXT/UTF8
    Codec ID/Info : UTF-8 Plain Text
    Title : Полные
    Language : English
    Default : No
    Forced : No
    Menu
    00:00:00.000 : en:Chapter 1
    00:02:32.944 : en:Chapter 2
    00:07:03.881 : en:Chapter 3
    00:09:26.857 : en:Chapter 4
    00:12:22.324 : en:Chapter 5
    00:14:42.131 : en:Chapter 6
    00:17:03.981 : en:Chapter 7
    00:20:05.454 : en:Chapter 8
    00:23:58.061 : en:Chapter 9
    00:27:05.999 : en:Chapter 10
    00:30:25.615 : en:Chapter 11
    00:34:12.508 : en:Chapter 12
    00:36:13.796 : en:Chapter 13
    00:38:24.552 : en:Chapter 14
    00:41:06.297 : en:Chapter 15
    00:45:06.745 : en:Chapter 16
    00:48:07.050 : en:Chapter 17
    00:50:51.715 : en:Chapter 18
    00:54:19.130 : en:Chapter 19
    00:57:54.345 : en:Chapter 20
    00:59:34.320 : en:Chapter 21
    01:06:38.035 : en:Chapter 22
    01:12:24.173 : en:Chapter 23
    01:16:29.209 : en:Chapter 24
    01:18:19.111 : en:Chapter 25
    01:21:10.699 : en:Chapter 26
    01:25:30.083 : en:Chapter 27
    01:27:24.989 : en:Chapter 28
    01:29:32.950 : en:Chapter 29
    01:33:58.049 : en:Chapter 30
    01:35:50.369 : en:Chapter 31
    01:38:15.806 : en:Chapter 32
    01:42:43.866 : en:Chapter 33
    01:46:34.262 : en:Chapter 34
    01:50:10.979 : en:Chapter 35
    01:53:20.210 : en:Chapter 36
    01:59:43.217 : en:Chapter 37
    02:02:30.259 : en:Chapter 38

    Скриншоты

    Бэтмен возвращается

    -Название: Бэтмен возвращается
    Оригинальное название: Batman Returns
    Год выпуска: 1992
    Страна: США, Великобритания
    Жанр: боевик, фантастика
    Продолжительность: 02:06:28
    Перевод: Дубляж
    Субтитры: русские (Полные), английские (Полные)-Режиссер: Тим Бёртон / Tim Burton-В ролях: Майкл Китон (Batman / Bruce Wayne), Дэнни ДеВито (Penguin / Oswald Cobblepot), Мишель Пфайффер (Catwoman / Selina Kyle), Кристофер Уокен (Max Shreck), Майкл Гоф (Alfred Pennyworth), Майкл Мерфи (The Mayor), Кристи Конэуэй (Ice Princess), Эндрю Бринярски (Charles «Chip» Shreck), Пэт Хингл (Commissioner James Gordon), Винсент Скьявелли (Organ Grinder), Стив Уиттинг (Josh), Джен Хукс (Jen)-Описание:
    Над Готэмом нависла новая угроза. Два эксцентричных персонажа: мерзкий Пингвин, брошенный родителями и вышедший из городской канализации, и таинственная Женщина-Кошка начали борьбу за власть. Один из них намерен занять кресло мэра города, а другая испытывает романтические чувства к готэмскому герою. Сможет ли Бэтмен победить таких грозных противников одновременно?-Рейтинг

    imdb.com: 7.00 (192 932)
    MPAA: PG-13 - Детям до 13 лет просмотр не желателен-Качество: BDRip-AVC 60fps
    Формат: MKV
    Видео кодек: AVC
    Аудио кодек:AC3
    Видео: AVC, 1024x576 (16:9), 4040 kbps, 59,940 fps, 0,114 bpp
    Аудио: русский / AC3 / 5.1 / 48 kHz / 448 kbps / 16 bit |Дубляж|
    Навигация по главам: есть- -

    MI

    Video
    ID : 1
    Format : AVC
    Format/Info : Advanced Video Codec
    Format profile : High@L4.1
    Format settings, CABAC : Yes
    Format settings, ReFrames : 4 frames
    Codec ID : V_MPEG4/ISO/AVC
    Duration : 2h 6mn
    Bit rate : 4 040 Kbps
    Width : 1 024 pixels
    Height : 576 pixels
    Display aspect ratio : 16:9
    Frame rate : 59.940 fps
    Color space : YUV
    Chroma subsampling : 4:2:0
    Bit depth : 8 bits
    Scan type : Progressive
    Bits/(Pixel*Frame) : 0.114
    Stream size : 3.49 GiB (88%)
    Title : Tiberiumsun69
    Writing library : x264 core 146 r2538 121396c
    Encoding settings : cabac=1 / ref=3 / deblock=1:0:0 / analyse=0x3:0x113 / me=umh / subme=11 / psy=1 / psy_rd=1.00:0.10 / mixed_ref=1 / me_range=32 / chroma_me=1 / trellis=2 / 8x8dct=1 / cqm=0 / deadzone=21,11 / fast_pskip=0 / chroma_qp_offset=-3 / threads=12 / lookahead_threads=3 / sliced_threads=0 / nr=0 / decimate=1 / interlaced=0 / bluray_compat=0 / constrained_intra=0 / bframes=16 / b_pyramid=2 / b_adapt=2 / b_bias=0 / direct=3 / weightb=1 / open_gop=0 / weightp=2 / keyint=600 / keyint_min=59 / scenecut=40 / intra_refresh=0 / rc_lookahead=60 / rc=2pass / mbtree=1 / bitrate=4040 / ratetol=1.0 / qcomp=0.60 / qpmin=0 / qpmax=69 / qpstep=4 / cplxblur=20.0 / qblur=0.5 / vbv_maxrate=50000 / vbv_bufsize=62500 / nal_hrd=none / filler=0 / ip_ratio=1.40 / aq=1:1.00
    Language : English
    Default : Yes
    Forced : No
    Audio
    ID : 2
    Format : AC-3
    Format/Info : Audio Coding 3
    Mode extension : CM (complete main)
    Codec ID : A_AC3
    Duration : 2h 6mn
    Bit rate mode : Constant
    Bit rate : 448 Kbps
    Channel(s) : 6 channels
    Channel positions : Front: L C R, Side: L R, LFE
    Sampling rate : 48.0 KHz
    Bit depth : 16 bits
    Compression mode : Lossy
    Stream size : 405 MiB (10%)
    Title : Дубляж
    Language : Russian
    Default : Yes
    Forced : No
    Text #1
    ID : 3
    Format : UTF-8
    Codec ID : S_TEXT/UTF8
    Codec ID/Info : UTF-8 Plain Text
    Title : Полные
    Language : Russian
    Default : No
    Forced : No
    Text #2
    ID : 4
    Format : UTF-8
    Codec ID : S_TEXT/UTF8
    Codec ID/Info : UTF-8 Plain Text
    Title : Полные
    Language : English
    Default : No
    Forced : No
    Menu
    00:00:00.000 : en:Chapter 1
    00:02:23.309 : en:Chapter 2
    00:05:30.663 : en:Chapter 3
    00:07:10.096 : en:Chapter 4
    00:09:22.728 : en:Chapter 5
    00:12:48.100 : en:Chapter 6
    00:17:13.198 : en:Chapter 7
    00:23:11.556 : en:Chapter 8
    00:25:19.017 : en:Chapter 9
    00:28:30.375 : en:Chapter 10
    00:33:51.195 : en:Chapter 11
    00:40:26.924 : en:Chapter 12
    00:43:04.081 : en:Chapter 13
    00:44:12.316 : en:Chapter 14
    00:48:31.241 : en:Chapter 15
    00:54:08.411 : en:Chapter 16
    00:55:48.011 : en:Chapter 17
    00:57:59.809 : en:Chapter 18
    00:59:44.247 : en:Chapter 19
    01:02:15.732 : en:Chapter 20
    01:07:47.730 : en:Chapter 21
    01:10:02.198 : en:Chapter 22
    01:13:09.051 : en:Chapter 23
    01:17:59.341 : en:Chapter 24
    01:20:42.504 : en:Chapter 25
    01:22:29.611 : en:Chapter 26
    01:26:44.032 : en:Chapter 27
    01:31:44.999 : en:Chapter 28
    01:33:47.455 : en:Chapter 29
    01:38:13.888 : en:Chapter 30
    01:40:38.699 : en:Chapter 31
    01:42:44.158 : en:Chapter 32
    01:44:08.575 : en:Chapter 33
    01:48:42.849 : en:Chapter 34
    01:50:45.639 : en:Chapter 35
    01:53:56.162 : en:Chapter 36
    01:55:46.439 : en:Chapter 37
    01:58:21.928 : en:Chapter 38
    02:00:50.910 : en:Chapter 39

    Скриншоты

    Бэтмен навсегда

    -Название: Бэтмен навсегда
    Оригинальное название: Batman Forever
    Год выпуска: 1995
    Страна: США, Великобритания
    Жанр: фэнтези, боевик, приключения
    Продолжительность: 02:01:35
    Перевод: Дубляж
    Субтитры: русские (Полные), английские (Полные)-Режиссер: Джоэл Шумахер / Joel Schumacher-В ролях: Вэл Килмер (Batman / Bruce Wayne), Томми Ли Джонс (Two-Face / Harvey Dent), Джим Керри (Riddler / Dr. Edward Nygma), Николь Кидман (Dr. Chase Meridian), Крис О’Доннелл (Robin / Dick Grayson), Майкл Гоф (Alfred Pennyworth), Пэт Хингл (Commissioner James Gordon), Дрю Бэрримор (Sugar), Деби Мейзар (Spice), Элизабет Сэндерс (Gossip Gerty), Рене Обержонуа (Dr. Burton), Джо Грифази (Bank Guard)-Описание:
    Бэтмен продолжает войну со злом. На этот раз ему предстоит биться с двумя объединенными злодеями: бывшим окружным прокурором пострадавшим от кислоты Двуликим и сумасшедшим гением Загадочником. А помогать ему станет юный акробат по имени Робин.-Рейтинг

    imdb.com: 5.40 (172 880)
    MPAA: PG-13 - Детям до 13 лет просмотр не желателен-Качество: BDRip-AVC 60fps
    Формат: MKV
    Видео кодек: AVC
    Аудио кодек:AC3
    Видео: AVC, 1024x576 (16:9), 4220 kbps, 59,940 fps, 0,119 bpp
    Аудио: русский / AC3 / 5.1 / 48 kHz / 448 kbps / 16 bit |Дубляж|
    Навигация по главам: есть- -

    MI

    Video
    ID : 1
    Format : AVC
    Format/Info : Advanced Video Codec
    Format profile : High@L4.1
    Format settings, CABAC : Yes
    Format settings, ReFrames : 4 frames
    Codec ID : V_MPEG4/ISO/AVC
    Duration : 2h 1mn
    Bit rate : 4 220 Kbps
    Width : 1 024 pixels
    Height : 576 pixels
    Display aspect ratio : 16:9
    Frame rate : 59.940 fps
    Color space : YUV
    Chroma subsampling : 4:2:0
    Bit depth : 8 bits
    Scan type : Progressive
    Bits/(Pixel*Frame) : 0.119
    Stream size : 3.51 GiB (88%)
    Title : Tiberiumsun69
    Writing library : x264 core 146 r2538 121396c
    Encoding settings : cabac=1 / ref=3 / deblock=1:0:0 / analyse=0x3:0x113 / me=umh / subme=11 / psy=1 / psy_rd=1.00:0.10 / mixed_ref=1 / me_range=32 / chroma_me=1 / trellis=2 / 8x8dct=1 / cqm=0 / deadzone=21,11 / fast_pskip=0 / chroma_qp_offset=-3 / threads=12 / lookahead_threads=3 / sliced_threads=0 / nr=0 / decimate=1 / interlaced=0 / bluray_compat=0 / constrained_intra=0 / bframes=16 / b_pyramid=2 / b_adapt=2 / b_bias=0 / direct=3 / weightb=1 / open_gop=0 / weightp=2 / keyint=600 / keyint_min=59 / scenecut=40 / intra_refresh=0 / rc_lookahead=60 / rc=2pass / mbtree=1 / bitrate=4220 / ratetol=1.0 / qcomp=0.60 / qpmin=0 / qpmax=69 / qpstep=4 / cplxblur=20.0 / qblur=0.5 / vbv_maxrate=50000 / vbv_bufsize=62500 / nal_hrd=none / filler=0 / ip_ratio=1.40 / aq=1:1.00
    Language : English
    Default : Yes
    Forced : No
    Audio
    ID : 2
    Format : AC-3
    Format/Info : Audio Coding 3
    Mode extension : CM (complete main)
    Codec ID : A_AC3
    Duration : 2h 1mn
    Bit rate mode : Constant
    Bit rate : 448 Kbps
    Channel(s) : 6 channels
    Channel positions : Front: L C R, Side: L R, LFE
    Sampling rate : 48.0 KHz
    Bit depth : 16 bits
    Compression mode : Lossy
    Stream size : 390 MiB (10%)
    Title : Дубляж
    Language : Russian
    Default : Yes
    Forced : No
    Text #1
    ID : 3
    Format : UTF-8
    Codec ID : S_TEXT/UTF8
    Codec ID/Info : UTF-8 Plain Text
    Title : Полные
    Language : Russian
    Default : No
    Forced : No
    Text #2
    ID : 4
    Format : UTF-8
    Codec ID : S_TEXT/UTF8
    Codec ID/Info : UTF-8 Plain Text
    Title : Полные
    Language : English
    Default : No
    Forced : No
    Menu
    00:00:00.000 : en:Chapter 1
    00:02:18.138 : en:Chapter 2
    00:05:30.496 : en:Chapter 3
    00:10:10.776 : en:Chapter 4
    00:12:41.093 : en:Chapter 5
    00:16:36.996 : en:Chapter 6
    00:19:56.028 : en:Chapter 7
    00:24:51.990 : en:Chapter 8
    00:29:10.081 : en:Chapter 9
    00:32:56.641 : en:Chapter 10
    00:41:03.294 : en:Chapter 11
    00:44:09.647 : en:Chapter 12
    00:46:51.809 : en:Chapter 13
    00:48:09.219 : en:Chapter 14
    00:50:49.546 : en:Chapter 15
    00:56:48.905 : en:Chapter 16
    00:58:16.993 : en:Chapter 17
    01:01:51.207 : en:Chapter 18
    01:04:45.214 : en:Chapter 19
    01:08:38.280 : en:Chapter 20
    01:10:24.887 : en:Chapter 21
    01:15:14.176 : en:Chapter 22
    01:19:55.791 : en:Chapter 23
    01:21:59.915 : en:Chapter 24
    01:24:06.875 : en:Chapter 25
    01:24:58.593 : en:Chapter 26
    01:26:17.672 : en:Chapter 27
    01:31:36.324 : en:Chapter 28
    01:35:50.745 : en:Chapter 29
    01:37:25.172 : en:Chapter 30
    01:39:55.990 : en:Chapter 31
    01:41:11.732 : en:Chapter 32
    01:42:54.168 : en:Chapter 33
    01:44:58.500 : en:Chapter 34
    01:52:35.749 : en:Chapter 35
    01:53:45.151 : en:Chapter 36
    01:54:42.375 : en:Chapter 37
    01:56:03.790 : en:Chapter 38
    01:57:33.212 : en:Chapter 39

    Скриншоты

    Бэтмен и Робин

    -Название: Бэтмен и Робин
    Оригинальное название: Batman & Robin
    Год выпуска: 1997
    Страна: США, Великобритания
    Жанр: боевик
    Продолжительность: 02:04:53
    Перевод: Дубляж
    Субтитры: русские (Полные), английские (Полные)-Режиссер: Джоэл Шумахер / Joel Schumacher-В ролях: Арнольд Шварценеггер (Mr. Freeze / Dr. Victor Fries), Джордж Клуни (Batman / Bruce Wayne), Крис О’Доннелл (Robin / Dick Grayson), Ума Турман (Poison Ivy / Dr. Pamela Isley), Алисия Сильверстоун (Batgirl / Barbara Wilson), Майкл Гоф (Alfred Pennyworth), Пэт Хингл (Commissioner James Gordon), Джон Гловер (Dr. Jason Woodrue), Эль Макферсон (Julie Madison), Вивика А. Фокс (Ms. B. Haven), Вендела Кирсбом Томессен (Nora Fries), Элизабет Сэндерс (Gossip Gerty)-Описание:
    Над Готэмом вновь нависла угроза: злодей-морозилка Мистер Фриз и психованная любительница растений по кличке Ядовитый Плющ решают уничтожить город. Единственные, кто могут остановить злодеев - Бэтмен и Робин, однако у этих супергероев возникают разногласия...-Рейтинг

    imdb.com: 3.60 (172 442)
    MPAA: PG-13 - Детям до 13 лет просмотр не желателен-Качество: BDRip-AVC 60fps
    Формат: MKV
    Видео кодек: AVC
    Аудио кодек:AC3
    Видео: AVC, 1024x576 (16:9), 4100 kbps, 59,940 fps, 0,116 bpp
    Аудио: русский / AC3 / 5.1 / 48 kHz / 448 kbps / 16 bit |Дубляж|
    Навигация по главам: есть- -

    MI

    Video
    ID : 1
    Format : AVC
    Format/Info : Advanced Video Codec
    Format profile : High@L4.1
    Format settings, CABAC : Yes
    Format settings, ReFrames : 4 frames
    Codec ID : V_MPEG4/ISO/AVC
    Duration : 2h 4mn
    Bit rate : 4 100 Kbps
    Width : 1 024 pixels
    Height : 576 pixels
    Display aspect ratio : 16:9
    Frame rate : 59.940 fps
    Color space : YUV
    Chroma subsampling : 4:2:0
    Bit depth : 8 bits
    Scan type : Progressive
    Bits/(Pixel*Frame) : 0.116
    Stream size : 3.50 GiB (88%)
    Title : Tiberiumsun69
    Writing library : x264 core 146 r2538 121396c
    Encoding settings : cabac=1 / ref=3 / deblock=1:0:0 / analyse=0x3:0x113 / me=umh / subme=11 / psy=1 / psy_rd=1.00:0.10 / mixed_ref=1 / me_range=32 / chroma_me=1 / trellis=2 / 8x8dct=1 / cqm=0 / deadzone=21,11 / fast_pskip=0 / chroma_qp_offset=-3 / threads=12 / lookahead_threads=3 / sliced_threads=0 / nr=0 / decimate=1 / interlaced=0 / bluray_compat=0 / constrained_intra=0 / bframes=16 / b_pyramid=2 / b_adapt=2 / b_bias=0 / direct=3 / weightb=1 / open_gop=0 / weightp=2 / keyint=600 / keyint_min=59 / scenecut=40 / intra_refresh=0 / rc_lookahead=60 / rc=2pass / mbtree=1 / bitrate=4100 / ratetol=1.0 / qcomp=0.60 / qpmin=0 / qpmax=69 / qpstep=4 / cplxblur=20.0 / qblur=0.5 / vbv_maxrate=50000 / vbv_bufsize=62500 / nal_hrd=none / filler=0 / ip_ratio=1.40 / aq=1:1.00
    Language : English
    Default : Yes
    Forced : No
    Audio
    ID : 2
    Format : AC-3
    Format/Info : Audio Coding 3
    Mode extension : CM (complete main)
    Codec ID : A_AC3
    Duration : 2h 4mn
    Bit rate mode : Constant
    Bit rate : 448 Kbps
    Channel(s) : 6 channels
    Channel positions : Front: L C R, Side: L R, LFE
    Sampling rate : 48.0 KHz
    Bit depth : 16 bits
    Compression mode : Lossy
    Stream size : 400 MiB (10%)
    Title : Дубляж
    Language : Russian
    Default : Yes
    Forced : No
    Text #1
    ID : 3
    Format : UTF-8
    Codec ID : S_TEXT/UTF8
    Codec ID/Info : UTF-8 Plain Text
    Title : Полные
    Language : Russian
    Default : No
    Forced : No
    Text #2
    ID : 4
    Format : UTF-8
    Codec ID : S_TEXT/UTF8
    Codec ID/Info : UTF-8 Plain Text
    Title : Полные
    Language : English
    Default : No
    Forced : No
    Menu
    00:00:00.000 : en:Chapter 1
    00:03:51.231 : en:Chapter 2
    00:09:12.552 : en:Chapter 3
    00:13:25.971 : en:Chapter 4
    00:15:11.744 : en:Chapter 5
    00:19:09.481 : en:Chapter 6
    00:21:01.093 : en:Chapter 7
    00:24:03.608 : en:Chapter 8
    00:26:35.719 : en:Chapter 9
    00:29:13.251 : en:Chapter 10
    00:31:41.733 : en:Chapter 11
    00:33:59.370 : en:Chapter 12
    00:38:42.153 : en:Chapter 13
    00:39:54.558 : en:Chapter 14
    00:45:32.229 : en:Chapter 15
    00:48:47.925 : en:Chapter 16
    00:50:53.550 : en:Chapter 17
    00:54:27.931 : en:Chapter 18
    00:56:23.546 : en:Chapter 19
    00:59:29.732 : en:Chapter 20
    01:01:05.161 : en:Chapter 21
    01:06:00.957 : en:Chapter 22
    01:07:47.563 : en:Chapter 23
    01:12:16.832 : en:Chapter 24
    01:16:01.056 : en:Chapter 25
    01:20:16.478 : en:Chapter 26
    01:22:59.808 : en:Chapter 27
    01:25:40.468 : en:Chapter 28
    01:28:47.488 : en:Chapter 29
    01:32:02.183 : en:Chapter 30
    01:33:25.266 : en:Chapter 31
    01:35:15.876 : en:Chapter 32
    01:36:25.279 : en:Chapter 33
    01:41:21.241 : en:Chapter 34
    01:44:21.421 : en:Chapter 35
    01:48:31.505 : en:Chapter 36
    01:49:53.920 : en:Chapter 37
    01:51:43.697 : en:Chapter 38
    01:53:33.640 : en:Chapter 39
    01:56:29.315 : en:Chapter 40
    01:57:25.538 : en:Chapter 41
    01:59:40.506 : en:Chapter 42

    Скриншоты

    Бэтмен: Начало

    -Название: Бэтмен: Начало
    Оригинальное название: Batman Begins
    Год выпуска: 2005
    Страна: США, Великобритания
    Жанр: боевик, приключения, фантастика, драма
    Продолжительность: 02:20:02
    Перевод: Дубляж
    Субтитры: русские (Полные), английские (Полные)-Режиссер: Кристофер Нолан / Christopher Nolan-В ролях: Кристиан Бэйл (Bruce Wayne / Batman), Кэти Холмс (Rachel Dawes), Майкл Кейн (Alfred), Киллиан Мёрфи (Dr. Jonathan Crane / Scarecrow), Том Уилкинсон (Carmine Falcone), Лиам Нисон (Ducard), Кен Ватанабе (Ra's Al Ghul), Гари Олдман (Jim Gordon), Морган Фриман (Lucius Fox), Рутгер Хауэр (Earle), Раде Шербеджия (Homeless Man), Марк Бун Джуниор (Flass)-Описание:
    В детстве юный наследник огромного состояния Брюс Уэйн оказался свидетелем убийства своих родителей, и тогда он решил бороться с преступностью. Спустя годы он отправляется в путешествие по миру, чтобы найти способ восстановить справедливость. Обучение у мудрого наставника боевым искусствам дает ему силу и смелость. Вернувшись в родной город, Уэйн становится Бэтменом и ведет борьбу со злом.-Рейтинг

    imdb.com: 8.30 (832 190)
    MPAA: PG-13 - Детям до 13 лет просмотр не желателен-Качество: BDRip-AVC 60fps
    Формат: MKV
    Видео кодек: AVC
    Аудио кодек:AC3
    Видео: AVC, 1024x408 (2.510), 3415 kbps, 59,940 fps, 0,136 bpp
    Аудио: русский / AC3 / 5.1 / 48 kHz / 640 kbps / 16 bit |Дубляж|
    Навигация по главам: есть- -

    MI

    Video
    ID : 1
    Format : AVC
    Format/Info : Advanced Video Codec
    Format profile : High@L4.1
    Format settings, CABAC : Yes
    Format settings, ReFrames : 4 frames
    Codec ID : V_MPEG4/ISO/AVC
    Duration : 2h 20mn
    Bit rate : 3 415 Kbps
    Width : 1 024 pixels
    Height : 408 pixels
    Display aspect ratio : 2.510
    Frame rate : 59.940 fps
    Color space : YUV
    Chroma subsampling : 4:2:0
    Bit depth : 8 bits
    Scan type : Progressive
    Bits/(Pixel*Frame) : 0.136
    Stream size : 3.27 GiB (82%)
    Title : Tiberiumsun69
    Writing library : x264 core 146 r2538 121396c
    Encoding settings : cabac=1 / ref=3 / deblock=1:0:0 / analyse=0x3:0x113 / me=umh / subme=11 / psy=1 / psy_rd=1.00:0.10 / mixed_ref=1 / me_range=32 / chroma_me=1 / trellis=2 / 8x8dct=1 / cqm=0 / deadzone=21,11 / fast_pskip=0 / chroma_qp_offset=-3 / threads=12 / lookahead_threads=3 / sliced_threads=0 / nr=0 / decimate=1 / interlaced=0 / bluray_compat=0 / constrained_intra=0 / bframes=16 / b_pyramid=2 / b_adapt=2 / b_bias=0 / direct=3 / weightb=1 / open_gop=0 / weightp=2 / keyint=600 / keyint_min=59 / scenecut=40 / intra_refresh=0 / rc_lookahead=60 / rc=2pass / mbtree=1 / bitrate=3415 / ratetol=1.0 / qcomp=0.60 / qpmin=0 / qpmax=69 / qpstep=4 / cplxblur=20.0 / qblur=0.5 / vbv_maxrate=50000 / vbv_bufsize=62500 / nal_hrd=none / filler=0 / ip_ratio=1.40 / aq=1:1.00
    Language : English
    Default : Yes
    Forced : No
    Audio
    ID : 2
    Format : AC-3
    Format/Info : Audio Coding 3
    Mode extension : CM (complete main)
    Codec ID : A_AC3
    Duration : 2h 20mn
    Bit rate mode : Constant
    Bit rate : 640 Kbps
    Channel(s) : 6 channels
    Channel positions : Front: L C R, Side: L R, LFE
    Sampling rate : 48.0 KHz
    Bit depth : 16 bits
    Compression mode : Lossy
    Stream size : 641 MiB (16%)
    Title : Дубляж
    Language : Russian
    Default : Yes
    Forced : No
    Text #1
    ID : 3
    Format : UTF-8
    Codec ID : S_TEXT/UTF8
    Codec ID/Info : UTF-8 Plain Text
    Title : Полные
    Language : Russian
    Default : No
    Forced : No
    Text #2
    ID : 4
    Format : UTF-8
    Codec ID : S_TEXT/UTF8
    Codec ID/Info : UTF-8 Plain Text
    Title : Полные
    Language : English
    Default : No
    Forced : No
    Menu
    00:00:00.000 : en:Chapter 1
    00:03:39.219 : en:Chapter 2
    00:07:31.117 : en:Chapter 3
    00:11:34.026 : en:Chapter 4
    00:16:15.641 : en:Chapter 5
    00:19:44.349 : en:Chapter 6
    00:24:19.291 : en:Chapter 7
    00:28:24.703 : en:Chapter 8
    00:31:25.383 : en:Chapter 9
    00:35:53.818 : en:Chapter 10
    00:38:24.635 : en:Chapter 11
    00:41:14.638 : en:Chapter 12
    00:43:08.252 : en:Chapter 13
    00:46:57.981 : en:Chapter 14
    00:49:43.981 : en:Chapter 15
    00:53:26.203 : en:Chapter 16
    00:55:55.018 : en:Chapter 17
    00:58:02.145 : en:Chapter 18
    01:03:31.808 : en:Chapter 19
    01:05:53.115 : en:Chapter 20
    01:08:38.781 : en:Chapter 21
    01:11:25.781 : en:Chapter 22
    01:13:19.561 : en:Chapter 23
    01:16:16.238 : en:Chapter 24
    01:19:50.285 : en:Chapter 25
    01:23:54.362 : en:Chapter 26
    01:29:02.670 : en:Chapter 27
    01:32:36.717 : en:Chapter 28
    01:37:49.029 : en:Chapter 29
    01:40:33.694 : en:Chapter 30
    01:45:08.969 : en:Chapter 31
    01:49:32.065 : en:Chapter 32
    01:51:29.182 : en:Chapter 33
    01:54:49.048 : en:Chapter 34
    01:58:11.084 : en:Chapter 35
    02:01:54.974 : en:Chapter 36
    02:05:01.160 : en:Chapter 37
    02:06:06.892 : en:Chapter 38
    02:09:18.417 : en:Chapter 39
    02:10:57.015 : en:Chapter 40

    Скриншоты

    Темный рыцарь (IMAX)

    -Название: Темный рыцарь
    Оригинальное название: The Dark Knight
    Год выпуска: 2008
    Страна: США, Великобритания
    Жанр: фантастика, боевик, триллер, криминал, драма
    Продолжительность: 02:32:13
    Перевод: Дубляж
    Субтитры: русские (Полные), английские (Полные)-Режиссер: Кристофер Нолан / Christopher Nolan-В ролях: Кристиан Бэйл (Bruce Wayne), Хит Леджер (Joker), Аарон Экхарт (Harvey Dent), Мэгги Джилленхол (Rachel), Гари Олдман (Gordon), Майкл Кейн (Alfred), Морган Фриман (Lucius Fox), Чин Хань (Lau), Нестор Карбонелл (Mayor), Эрик Робертс (Maroni), Ричи Костер (Chechen), Моник Кёрнен (Ramirez)-Описание:
    Бэтмен поднимает ставки в войне с криминалом. С помощью лейтенанта Джима Гордона и прокурора Харви Дента он намерен очистить улицы от преступности, отравляющей город. Сотрудничество оказывается эффективным, но скоро они обнаружат себя посреди хаоса, развязанного восходящим криминальным гением, известным испуганным горожанам под именем Джокер.-Рейтинг

    imdb.com: 9.00 (1 450 889)
    MPAA: PG-13 - Детям до 13 лет просмотр не желателен-Качество: BDRip-AVC 60fps
    Формат: MKV
    Видео кодек: AVC
    Аудио кодек:AC3
    Видео: AVC, 1024x576 (16:9), 3280 kbps, 59,940 fps, 0,093 bpp
    Аудио: русский / AC3 / 5.1 / 48 kHz / 448 kbps / 16 bit |Дубляж|
    Навигация по главам: есть- -

    MI

    General
    Video
    ID : 1
    Format : AVC
    Format/Info : Advanced Video Codec
    Format profile : High@L4.1
    Format settings, CABAC : Yes
    Format settings, ReFrames : 4 frames
    Codec ID : V_MPEG4/ISO/AVC
    Duration : 2h 32mn
    Bit rate : 3 280 Kbps
    Width : 1 024 pixels
    Height : 576 pixels
    Display aspect ratio : 16:9
    Frame rate : 59.940 fps
    Color space : YUV
    Chroma subsampling : 4:2:0
    Bit depth : 8 bits
    Scan type : Progressive
    Bits/(Pixel*Frame) : 0.093
    Stream size : 3.41 GiB (86%)
    Title : Tiberiumsun69
    Writing library : x264 core 146 r2538 121396c
    Encoding settings : cabac=1 / ref=3 / deblock=1:0:0 / analyse=0x3:0x113 / me=umh / subme=11 / psy=1 / psy_rd=1.00:0.10 / mixed_ref=1 / me_range=32 / chroma_me=1 / trellis=2 / 8x8dct=1 / cqm=0 / deadzone=21,11 / fast_pskip=0 / chroma_qp_offset=-3 / threads=12 / lookahead_threads=3 / sliced_threads=0 / nr=0 / decimate=1 / interlaced=0 / bluray_compat=0 / constrained_intra=0 / bframes=16 / b_pyramid=2 / b_adapt=2 / b_bias=0 / direct=3 / weightb=1 / open_gop=0 / weightp=2 / keyint=600 / keyint_min=59 / scenecut=40 / intra_refresh=0 / rc_lookahead=60 / rc=2pass / mbtree=1 / bitrate=3280 / ratetol=1.0 / qcomp=0.60 / qpmin=0 / qpmax=69 / qpstep=4 / cplxblur=20.0 / qblur=0.5 / vbv_maxrate=50000 / vbv_bufsize=62500 / nal_hrd=none / filler=0 / ip_ratio=1.40 / aq=1:1.00
    Language : English
    Default : Yes
    Forced : No
    Audio
    ID : 2
    Format : AC-3
    Format/Info : Audio Coding 3
    Mode extension : CM (complete main)
    Codec ID : A_AC3
    Duration : 2h 32mn
    Bit rate mode : Constant
    Bit rate : 448 Kbps
    Channel(s) : 6 channels
    Channel positions : Front: L C R, Side: L R, LFE
    Sampling rate : 48.0 KHz
    Bit depth : 16 bits
    Compression mode : Lossy
    Stream size : 488 MiB (12%)
    Title : Дубляж
    Language : Russian
    Default : Yes
    Forced : No
    Text #1
    ID : 3
    Format : UTF-8
    Codec ID : S_TEXT/UTF8
    Codec ID/Info : UTF-8 Plain Text
    Title : Полные
    Language : Russian
    Default : No
    Forced : No
    Text #2
    ID : 4
    Format : UTF-8
    Codec ID : S_TEXT/UTF8
    Codec ID/Info : UTF-8 Plain Text
    Title : Полные
    Language : English
    Default : No
    Forced : No
    Menu
    00:00:00.000 : en:Chapter 1
    00:06:23.966 : en:Chapter 2
    00:10:36.260 : en:Chapter 3
    00:13:52.581 : en:Chapter 4
    00:17:54.198 : en:Chapter 5
    00:21:39.339 : en:Chapter 6
    00:26:10.026 : en:Chapter 7
    00:29:36.274 : en:Chapter 8
    00:31:42.483 : en:Chapter 9
    00:37:49.058 : en:Chapter 10
    00:43:34.069 : en:Chapter 11
    00:46:39.546 : en:Chapter 12
    00:48:57.768 : en:Chapter 13
    00:53:19.446 : en:Chapter 14
    00:57:15.640 : en:Chapter 15
    00:59:26.354 : en:Chapter 16
    01:03:59.627 : en:Chapter 17
    01:08:23.557 : en:Chapter 18
    01:10:48.327 : en:Chapter 19
    01:14:24.918 : en:Chapter 20
    01:18:05.639 : en:Chapter 21
    01:22:22.437 : en:Chapter 22
    01:24:48.583 : en:Chapter 23
    01:30:48.443 : en:Chapter 24
    01:34:04.972 : en:Chapter 25
    01:39:57.783 : en:Chapter 26
    01:42:05.494 : en:Chapter 27
    01:44:59.918 : en:Chapter 28
    01:47:00.872 : en:Chapter 29
    01:51:09.913 : en:Chapter 30
    01:54:14.639 : en:Chapter 31
    01:57:04.017 : en:Chapter 32
    02:00:14.248 : en:Chapter 33
    02:03:37.576 : en:Chapter 34
    02:09:07.614 : en:Chapter 35
    02:12:27.314 : en:Chapter 36
    02:15:22.781 : en:Chapter 37
    02:19:58.681 : en:Chapter 38
    02:24:26.658 : en:Chapter 39

    Скриншоты

    Темный рыцарь: Возрождение легенды (IMAX)

    -Название: Темный рыцарь: Возрождение легенды
    Оригинальное название: The Dark Knight Rises
    Год выпуска: 2012
    Страна: США, Великобритания
    Жанр: фантастика, боевик, триллер, драма, криминал
    Продолжительность: 02:44:33
    Перевод: Дубляж
    Субтитры: русские (Форсированные), русские (Полные), английские (Полные)-Режиссер: Кристофер Нолан / Christopher Nolan-В ролях: Кристиан Бэйл (Bruce Wayne), Том Харди (Bane), Энн Хэтэуэй (Selina), Джозеф Гордон-Левитт (Blake), Марион Котийяр (Miranda), Гари Олдман (Commissioner Gordon), Морган Фриман (Fox), Майкл Кейн (Alfred), Мэттью Модайн (Foley), Бен Мендельсон (Daggett), Дэниел Сунджата (Captain Jones), Эйдан Гиллен (CIA Op)-Описание:
    Восемь лет назад Бэтмен растворился в ночи, превратившись из героя в беглеца. Приняв на себя вину за смерть прокурора Харви Дента, он пожертвовал всем. Вместе с комиссаром Гордоном они решили, что так будет лучше для всех. Пока преступность была раздавлена антикриминальным актом Дента, ложь действовала.
    Тем не менее, еще опаснее становится появление нового врага Бэйна, чье лицо закрыто маской. Он разворачивает в Готэме чудовищную деятельность, и это вынуждает Брюса Уэйна выйти из импровизированного изгнания. Однако даже надев свой костюм, Бэтмен может проиграть Бэйну. Но с появлением хитрой воровки по прозвищу Женщина - Кошка с загадочным прошлым всё меняется.-Рейтинг

    imdb.com: 8.50 (966 833)
    MPAA: PG-13 - Детям до 13 лет просмотр не желателен-Качество: BDRip-AVC 60fps
    Формат: MKV
    Видео кодек: AVC
    Аудио кодек:AC3
    Видео: AVC, 1024x576 (16:9), 3000 kbps, 59,940 fps, 0,085 bpp
    Аудио: русский / AC3 / 5.1 / 48 kHz / 448 kbps / 16 bit |Дубляж|
    Навигация по главам: есть- -

    MI

    Video
    ID : 1
    Format : AVC
    Format/Info : Advanced Video Codec
    Format profile : High@L4.1
    Format settings, CABAC : Yes
    Format settings, ReFrames : 4 frames
    Codec ID : V_MPEG4/ISO/AVC
    Duration : 2h 44mn
    Bit rate : 3 000 Kbps
    Width : 1 024 pixels
    Height : 576 pixels
    Display aspect ratio : 16:9
    Frame rate : 59.940 fps
    Color space : YUV
    Chroma subsampling : 4:2:0
    Bit depth : 8 bits
    Scan type : Progressive
    Bits/(Pixel*Frame) : 0.085
    Stream size : 3.37 GiB (85%)
    Title : Tiberiumsun69
    Writing library : x264 core 146 r2538 121396c
    Encoding settings : cabac=1 / ref=3 / deblock=1:0:0 / analyse=0x3:0x113 / me=umh / subme=11 / psy=1 / psy_rd=1.00:0.10 / mixed_ref=1 / me_range=32 / chroma_me=1 / trellis=2 / 8x8dct=1 / cqm=0 / deadzone=21,11 / fast_pskip=0 / chroma_qp_offset=-3 / threads=12 / lookahead_threads=3 / sliced_threads=0 / nr=0 / decimate=1 / interlaced=0 / bluray_compat=0 / constrained_intra=0 / bframes=16 / b_pyramid=2 / b_adapt=2 / b_bias=0 / direct=3 / weightb=1 / open_gop=0 / weightp=2 / keyint=600 / keyint_min=59 / scenecut=40 / intra_refresh=0 / rc_lookahead=60 / rc=2pass / mbtree=1 / bitrate=3000 / ratetol=1.0 / qcomp=0.60 / qpmin=0 / qpmax=69 / qpstep=4 / cplxblur=20.0 / qblur=0.5 / vbv_maxrate=50000 / vbv_bufsize=62500 / nal_hrd=none / filler=0 / ip_ratio=1.40 / aq=1:1.00
    Language : English
    Default : Yes
    Forced : No
    Audio
    ID : 2
    Format : AC-3
    Format/Info : Audio Coding 3
    Mode extension : CM (complete main)
    Codec ID : A_AC3
    Duration : 2h 44mn
    Bit rate mode : Constant
    Bit rate : 448 Kbps
    Channel(s) : 6 channels
    Channel positions : Front: L C R, Side: L R, LFE
    Sampling rate : 48.0 KHz
    Bit depth : 16 bits
    Compression mode : Lossy
    Stream size : 527 MiB (13%)
    Title : Дубляж
    Language : Russian
    Default : Yes
    Forced : No
    Text #1
    ID : 3
    Format : UTF-8
    Codec ID : S_TEXT/UTF8
    Codec ID/Info : UTF-8 Plain Text
    Title : Форсированные
    Language : Russian
    Default : Yes
    Forced : No
    Text #2
    ID : 4
    Format : UTF-8
    Codec ID : S_TEXT/UTF8
    Codec ID/Info : UTF-8 Plain Text
    Title : Полные
    Language : Russian
    Default : No
    Forced : No
    Text #3
    ID : 5
    Format : UTF-8
    Codec ID : S_TEXT/UTF8
    Codec ID/Info : UTF-8 Plain Text
    Title : Полные
    Language : English
    Default : No
    Forced : No
    Menu
    00:00:00.000 : en:00:00:00.000
    00:09:02.834 : en:00:09:02.834
    00:19:08.522 : en:00:19:08.522
    00:30:15.856 : en:00:30:15.856
    00:41:08.800 : en:00:41:08.800
    00:51:09.525 : en:00:51:09.525
    01:00:29.668 : en:01:00:29.668
    01:10:04.033 : en:01:10:04.033
    01:20:13.475 : en:01:20:13.475
    01:31:00.580 : en:01:31:00.580
    01:39:24.292 : en:01:39:24.292
    01:48:58.490 : en:01:48:58.490
    02:00:21.589 : en:02:00:21.589
    02:10:47.673 : en:02:10:47.673
    02:19:12.636 : en:02:19:12.636
    02:30:14.631 : en:02:30:14.631
    02:36:50.526 : en:02:36:50.526

    Скриншоты

  2. Стаж:
    1 год 4 месяца
    Сообщений:
    1
    Пол:
    Не указан
    Грущу Станьте на раздачу, пожалуйста.
    25-Ноя-2016 19:48 (спустя 1 год)
  3. Стаж:
    3 года 6 месяцев
    Сообщений:
    2288
    Пол:
    Мужской
    6930 Грущу Станьте на раздачу, пожалуйста.
    Сидов: 37 Личеров: 17 Подробная статистика пиров
    25-Ноя-2016 20:41 (спустя 53 минуты)


Вы не можете начинать темы
Вы не можете отвечать на сообщения
Вы не можете редактировать свои сообщения
Вы не можете удалять свои сообщения
Вы не можете голосовать в опросах
Вы не можете прикреплять файлы к сообщениям
Вы не можете скачивать файлы