[Цитировать]
envy

Информация о фильме
Русское название: Бессонница
Оригинальное название: Insomnia
Год выхода: 2002
Жанр: триллер, драма, криминал, детектив
Режиссер: Кристофер Нолан
Выпущено: США, Канада
Продолжительность: 01:58:13
Перевод: Дублированный
В ролях: Аль Пачино, Робин Уильямс, Хилари Суэнк, Мартин Донован, Оливер «Оли» Земен, Пол Дули, Никки Кэтт, Ларри Холден, Джей Бразо, Лорни Кардинал-Сюжет фильма
Опытный детектив полиции Лос-Анджелеса Уилл Дормер вместе со своим напарником направлен в маленький городок на Аляске, чтобы расследовать убийство семнадцатилетней девушки. Помощником Дормера также становится проницательный детектив местной полиции Элли Бур.
Расследование продвигается, и скоро у полицейских появляется подозреваемый. Это Уолтер Финч — человек романтического склада характера, ведущий уединенный образ жизни. Напарник Дормера погибает во время одного из полицейских дежурств на пустынном скалистом берегу.
Эта случайная смерть лишает Дормера сна. Все больше запутываясь в сетях махинаций Финча, Дормер рискует потерять не только сон этими белыми летними ночами…-Файл
Качество: BDRip 720p (исходник Blu-ray Disc Remux)
Видео: 1280x534, 3810 Кбит/сек, 59.940 кадр/сек, AVC, x264, High@L4.1, 2.40:1, 0.093 Бит/[Пиксели*Кадры]
Аудио 1: AC-3, 448 Кбит/сек, 6 канала(ов), 48,0 КГц - Дублированный / Русский
Аудио 2: AC-3, 448 Кбит/сек, 6 канала(ов), 48,0 КГц - Оригинал / Английский
Субтитры: Русские | Полные, Английские | Полные
Форсированные субтитры: Нет
Чаптеры (Главы): Есть-
Автор Рипа: Сообщество: -

Скриншоты

MediaInfo

Format : Matroska
Format version : Version 2
File size : 3.97 GiB
Duration : 1h 58mn
Overall bit rate : 4 802 Kbps
Movie name : Бессонница.(2002).BDRip.720p.[envy].[60fps]
Encoded date : UTC 2015-05-27 12:39:39
Writing application : mkvmerge v5.8.0 ('No Sleep / Pillow') built on Sep 2 2012 15:37:04
Writing library : libebml v1.2.3 + libmatroska v1.3.0
Video
ID : 1
Format : AVC
Format/Info : Advanced Video Codec
Format profile : High@L4.1
Format settings, CABAC : Yes
Format settings, ReFrames : 9 frames
Codec ID : V_MPEG4/ISO/AVC
Duration : 1h 58mn
Bit rate : 3 810 Kbps
Width : 1 280 pixels
Height : 534 pixels
Display aspect ratio : 2.40:1
Frame rate mode : Constant
Frame rate : 59.880 fps
Original frame rate : 59.940 fps
Color space : YUV
Chroma subsampling : 4:2:0
Bit depth : 8 bits
Scan type : Progressive
Bits/(Pixel*Frame) : 0.093
Stream size : 3.15 GiB (79%)
Title : Бессонница.(2002).BDRip.720p.[envy].[60fps]
Writing library : x264 core 130 r2273 b3065e6
Encoding settings : cabac=1 / ref=9 / deblock=1:0:0 / analyse=0x3:0x113 / me=umh / subme=10 / psy=1 / psy_rd=1.00:0.00 / mixed_ref=1 / me_range=24 / chroma_me=1 / trellis=2 / 8x8dct=1 / cqm=0 / deadzone=21,11 / fast_pskip=0 / chroma_qp_offset=-2 / threads=12 / lookahead_threads=1 / sliced_threads=0 / nr=0 / decimate=1 / interlaced=0 / bluray_compat=0 / constrained_intra=0 / bframes=5 / b_pyramid=2 / b_adapt=2 / b_bias=0 / direct=3 / weightb=1 / open_gop=0 / weightp=2 / keyint=250 / keyint_min=25 / scenecut=40 / intra_refresh=0 / rc=crf / mbtree=0 / crf=18.0 / qcomp=0.60 / qpmin=0 / qpmax=69 / qpstep=4 / ip_ratio=1.40 / pb_ratio=1.30 / aq=2:1.00
Language : English
Default : Yes
Forced : No
Audio #1
ID : 2
Format : AC-3
Format/Info : Audio Coding 3
Mode extension : CM (complete main)
Format settings, Endianness : Big
Codec ID : A_AC3
Duration : 1h 58mn
Bit rate mode : Constant
Bit rate : 448 Kbps
Channel(s) : 6 channels
Channel positions : Front: L C R, Side: L R, LFE
Sampling rate : 48.0 KHz
Bit depth : 16 bits
Compression mode : Lossy
Stream size : 379 MiB (9%)
Title : Dub
Language : Russian
Default : Yes
Forced : No
Audio #2
ID : 3
Format : AC-3
Format/Info : Audio Coding 3
Mode extension : CM (complete main)
Format settings, Endianness : Big
Codec ID : A_AC3
Duration : 1h 58mn
Bit rate mode : Constant
Bit rate : 448 Kbps
Channel(s) : 6 channels
Channel positions : Front: L C R, Side: L R, LFE
Sampling rate : 48.0 KHz
Bit depth : 16 bits
Compression mode : Lossy
Stream size : 379 MiB (9%)
Title : Eng
Language : English
Default : No
Forced : No
Text #1
ID : 4
Format : UTF-8
Codec ID : S_TEXT/UTF8
Codec ID/Info : UTF-8 Plain Text
Title : Rus full
Language : Russian
Default : No
Forced : No
Text #2
ID : 5
Format : UTF-8
Codec ID : S_TEXT/UTF8
Codec ID/Info : UTF-8 Plain Text
Title : Eng full
Language : English
Default : No
Forced : No
Menu
00:00:00.000 : :Chapter 01
00:02:56.050 : :Chapter 02
00:06:21.798 : :Chapter 03
00:10:12.945 : :Chapter 04
00:12:43.429 : :Chapter 05
00:16:30.239 : :Chapter 06
00:21:45.554 : :Chapter 07
00:23:50.804 : :Chapter 08
00:27:06.666 : :Chapter 09
00:31:39.939 : :Chapter 10
00:35:00.056 : :Chapter 11
00:37:46.681 : :Chapter 12
00:41:21.645 : :Chapter 13
00:46:06.305 : :Chapter 14
00:48:51.386 : :Chapter 15
00:51:20.535 : :Chapter 16
00:56:52.283 : :Chapter 17
01:01:18.675 : :Chapter 18
01:04:13.724 : :Chapter 19
01:06:42.832 : :Chapter 20
01:11:51.557 : :Chapter 21
01:14:59.077 : :Chapter 22
01:19:45.280 : :Chapter 23
01:25:43.555 : :Chapter 24
01:29:22.774 : :Chapter 25
01:34:10.394 : :Chapter 26
01:36:56.644 : :Chapter 27
01:42:47.870 : :Chapter 28
01:46:13.325 : :Chapter 29
01:49:02.827 : :Chapter 30
01:54:04.838 : :Chapter 31
01:58:13.294 : :Chapter 32

[Цитировать]
Tranch

Люблю фильмы Нолана. Спасибки :ay:

[Цитировать]
Лилия

СПАСИБО! :tender:
 
Показать сообщения:    

Текущее время: 05-Дек 01:24

Часовой пояс: UTC + 3


Вы не можете начинать темы
Вы не можете отвечать на сообщения
Вы не можете редактировать свои сообщения
Вы не можете удалять свои сообщения
Вы не можете голосовать в опросах
Вы не можете прикреплять файлы к сообщениям
Вы не можете скачивать файлы