За гранью реальности (2018) BDRip 1080p | 60 FPS Я худею (2018) BDRip 1080p | 60 FPS Каникулы президента (2018) BDRip 1080p | 60 FPS Гоголь. Начало (2017) BDRip 1080p | 60 fps О чём говорят мужчины. Продолжение (2018) BDRip 1080p | 60 FPS Собибор (2018) BDRip 1080p | 60 fps Тренер (2018) BDRip 1080p | 60 FPS Движение вверх (2017) BDRip 1080p | 60 FPS
  1. Стаж:
    4 года 1 месяц
    Сообщений:
    2427
    Пол:
    Мужской
    «Было темно, тихо и пустынно... Неизвестный старался остаться незамеченным, и это ему удалось... А затем последовали события, которые и составляют эту загадочную и почти невероятную историю» Информация
    Название: Берегись автомобиля
    Год выхода: 1966
    Жанр: мелодрама, комедия, криминал
    Режиссер: Эльдар Рязанов
    Сценарий: Эмиль Брагинский, Эльдар Рязанов
    Директор фильма: Ефим Голынский
    В ролях: Иннокентий Смоктуновский, Олег Ефремов, Любовь Добржанская, Анатолий Папанов, Ольга Аросева, Андрей Миронов, Георгий Жжёнов, Евгений Евстигнеев, Донатас Банионис, Любовь Соколова и др.

    Сюжет:
    Эта удивительная история вполне может считаться фантастической. Скромный и застенчивый страховой агент, актер самодеятельного театра Юрий Деточкин оказывается непримиримым борцом за справедливость.
    Правда, для правосудия, представляемого актером того же театра, а в миру — следователем Подберезовиковым, этот Робин Гуд представляется опасным, хитроумным, изобретательным и неуловимым преступником…

    Страна: СССР
    Продолжительность: 01:33:30

    Файл
    Кодек: H.264
    Формат: MKV
    Качество: BDRip 1080p | 60 fps
    Видео: 1480 x 1080 (1.370) | 59.940 fps | 24.0 Мбит/сек
    Аудио: AC3 | 5.1 | 48 kHz | 448 kbps | 16 bit |

    MedifInfo

    Видео
    Идентификатор : 1
    Формат : AVC
    Формат/Информация : Advanced Video Codec
    Профиль формата : Main@L4.1
    Настройки формата : CABAC / 4 Ref Frames
    Параметр CABAC формата : Да
    Параметр RefFrames формата : 4 кадра
    Режим смешивания : Header stripping
    Идентификатор кодека : V_MPEG4/ISO/AVC
    Продолжительность : 1 ч. 34 м.
    Битрейт : 24,0 Мбит/сек
    Ширина : 1480 пикселей
    Высота : 1080 пикселей
    Соотношение сторон : 1,370
    Режим частоты кадров : Постоянный
    Частота кадров : 59,940 (60000/1001) кадров/сек
    Цветовое пространство : YUV
    Субдискретизация насыщенности : 4:2:0
    Битовая глубина : 8 бит
    Тип развёртки : Прогрессивная
    Бит/(Пиксели*Кадры) : 0.250
    Размер потока : 15,4 Гбайт (96%)
    Заголовок : www.60-fps.org
    Библиотека кодирования : x264 core 155 r2901 7d0ff22
    Настройки программы : cabac=1 / ref=3 / deblock=1:-3:-3 / analyse=0x1:0x111 / me=hex / subme=7 / psy=1 / psy_rd=1.00:0.25 / mixed_ref=1 / me_range=16 / chroma_me=1 / trellis=1 / 8x8dct=0 / cqm=0 / deadzone=6,6 / fast_pskip=1 / chroma_qp_offset=-4 / threads=12 / lookahead_threads=2 / sliced_threads=0 / nr=0 / decimate=0 / interlaced=0 / bluray_compat=0 / constrained_intra=0 / bframes=3 / b_pyramid=2 / b_adapt=1 / b_bias=0 / direct=1 / weightb=1 / open_gop=0 / weightp=2 / keyint=599 / keyint_min=59 / scenecut=40 / intra_refresh=0 / rc_lookahead=40 / rc=2pass / mbtree=1 / bitrate=23999 / ratetol=1.0 / qcomp=0.80 / qpmin=0 / qpmax=69 / qpstep=4 / cplxblur=20.0 / qblur=0.5 / vbv_maxrate=50000 / vbv_bufsize=62500 / nal_hrd=none / filler=0 / ip_ratio=1.10 / aq=1:0.50
    Default : Да
    Forced : Нет
    Аудио
    Идентификатор : 2
    Формат : AC-3
    Формат/Информация : Audio Coding 3
    Режим смешивания : Header stripping
    Идентификатор кодека : A_AC3
    Продолжительность : 1 ч. 34 м.
    Вид битрейта : Постоянный
    Битрейт : 448 Кбит/сек
    Каналы : 6 каналов
    Расположение каналов : Front: L C R, Side: L R, LFE
    Частота : 48,0 КГц
    Частота кадров : 31,250 кадров/сек (1536 SPF)
    Битовая глубина : 16 бит
    Метод сжатия : С потерями
    Размер потока : 302 Мбайт (2%)
    Язык : Russian
    ServiceKind/String : Complete Main
    Default : Нет
    Forced : Да
    Меню
    00:00:00.000 : en:00:00:00.000
    00:04:06.037 : en:00:04:06.037
    00:05:57.691 : en:00:05:57.691
    00:10:53.611 : en:00:10:53.611
    00:19:00.556 : en:00:19:00.556
    00:27:49.251 : en:00:27:49.251
    00:31:06.406 : en:00:31:06.406
    00:38:47.784 : en:00:38:47.784
    00:41:07.173 : en:00:41:07.173
    00:45:49.830 : en:00:45:49.830
    00:53:34.753 : en:00:53:34.753
    00:57:29.571 : en:00:57:29.571
    01:10:09.747 : en:01:10:09.747
    01:20:03.382 : en:01:20:03.382
    01:26:02.574 : en:01:26:02.574
    01:28:09.576 : en:01:28:09.576
    01:31:45.709 : en:01:31:45.709

    Релиз подготовлен 60 - fps



Вы не можете начинать темы
Вы не можете отвечать на сообщения
Вы не можете редактировать свои сообщения
Вы не можете удалять свои сообщения
Вы не можете голосовать в опросах
Вы не можете прикреплять файлы к сообщениям
Вы не можете скачивать файлы