[Цитировать]
Kryl

«Трогательная история о дружбе, основанная на реальных событиях»- Информация
Название: Белый плен
Оригинальное название: Eight Below
Год выхода: 2006
Жанр: Драма, мелодрама, приключения, семейный
Режиссер: Фрэнк Маршалл
Сценарий: Дэвид ДиДжилио, Тосиро Исидо, Корэёси Курахара
Продюсер: Патрик Краули, Дэвид Хоберман, Гари Барбер
В ролях:
Пол Уокер, Брюс Гринвуд, Мун Бладгуд, Венди Крюсон, Джерард Планкет, Аугуст Шелленберг, Джейсон Биггз, Д.Дж, Тимба, Кода, Джасмин, Апач, Бак, Ноубл, Тройка, Флэпджек, Дино, Ситка, Чейз, Флойд, Райан, Джаспер, Лайтнинг, Белинда Мец, Коннор Кристофер Левинс, Дункан Фрайзер, Дэн Зиски, Майкл Дэвид Симс, Дэниэл Бэйкон, Лаара Сэдик, Малкольм Стюарт
--Сюжет:
Действие фильма разворачивается на бескрайних просторах Антарктики. Научная экспедиция, в состав которой входят Джерри Шепард, его лучший друг Купер и геолог, отправляется на поиски метеорита.
Однако неожиданное происшествие и тяжелые погодные условия вынуждают их оставить свои собачьи упряжки и вернуться назад. И теперь восемь собак должны в течение шести месяцев бороться за выживание в ледяной пустыне и ждать, пока их спасут…
- Страна: США
Продолжительность: 02:00:23

Файл
Кодек: MPEG4/ISO/AVC H.264
Формат: MKV
Качество: BDRip 720p | 60 fps
Видео: 1280 x 534 (2.397) | 59.940 fps | 10.0 Мбит/сек
Аудио 1: AC3 | 5.1 | 48 kHz | 640 kbps | 16 bit | Дубляж |
Аудио 2: AC3 | 5.1 | 48 kHz | 384 kbps | 16 bit | Авторский (одноголосый, закадровый) Ю. Немахов |
Аудио 3: AC3 | 2.0 | 48 kHz | 192 kbps | 16 bit | Украинский ТЕТ |
Аудио 4: AC3 | 5.1 | 48 kHz | 640 kbps | 16 bit | ENG |
Субтитры: Русские (цветные), ENG (color)

MedifInfo

Видео
Идентификатор : 1
Формат : AVC
Формат/Информация : Advanced Video Codec
Профиль формата : High@L4.1
Параметр CABAC формата : Да
Параметр ReFrames формата : 3 кадра
Параметр GOP формата : M=3, N=72
Идентификатор кодека : V_MPEG4/ISO/AVC
Продолжительность : 2 ч. 1 м.
Вид битрейта : Переменный
Битрейт : 9527 Кбит/сек
Максимальный битрейт : 10000 Кбит/сек
Ширина : 1280 пикселей
Высота : 534 пикселя
Соотношение сторон : 2,40:1
Режим частоты кадров : Постоянный
Частота кадров : 59,880 кадров/сек
Частота кадров в оригинале : 59,940 кадров/сек
Стандарт вещания : PAL
Цветовое пространство : YUV
Субдискретизация насыщенности : 4:2:0
Битовая глубина : 8 бит
Тип развёртки : Прогрессивная
Бит/(Пиксели*Кадры) : 0.233
Размер потока : 8,08 Гбайт (82%)
Заголовок : www.60-fps.org
Язык : English
Default : Да
Forced : Нет
Основные цвета : BT.601 NTSC
Характеристики трансфера : BT.601
Коэффициенты матрицы : BT.601
colour_range : Limited
Аудио #1
Идентификатор : 2
Формат : AC-3
Формат/Информация : Audio Coding 3
Расширение режима : CM (complete main)
Параметр Endianness формата : Big
Идентификатор кодека : A_AC3
Продолжительность : 2 ч. 1 м.
Вид битрейта : Постоянный
Битрейт : 640 Кбит/сек
Каналы : 6 каналов
Расположение каналов : Front: L C R, Side: L R, LFE
Частота : 48,0 КГц
Битовая глубина : 16 бит
Метод сжатия : С потерями
Размер потока : 556 Мбайт (6%)
Заголовок : Дубляж
Default : Да
Forced : Нет
Аудио #2
Идентификатор : 3
Формат : AC-3
Формат/Информация : Audio Coding 3
Расширение режима : CM (complete main)
Параметр Endianness формата : Big
Идентификатор кодека : A_AC3
Продолжительность : 2 ч. 1 м.
Вид битрейта : Постоянный
Битрейт : 384 Кбит/сек
Каналы : 6 каналов
Расположение каналов : Front: L C R, Side: L R, LFE
Частота : 48,0 КГц
Битовая глубина : 16 бит
Метод сжатия : С потерями
Размер потока : 333 Мбайт (3%)
Заголовок : Ю. Немахов
Default : Нет
Forced : Нет
Аудио #3
Идентификатор : 4
Формат : AC-3
Формат/Информация : Audio Coding 3
Расширение режима : CM (complete main)
Параметр Endianness формата : Big
Идентификатор кодека : A_AC3
Продолжительность : 2 ч. 1 м.
Вид битрейта : Постоянный
Битрейт : 192 Кбит/сек
Каналы : 2 канала
Расположение каналов : Front: L R
Частота : 48,0 КГц
Битовая глубина : 16 бит
Метод сжатия : С потерями
Размер потока : 167 Мбайт (2%)
Заголовок : Украинский ТЕТ
Default : Нет
Forced : Нет
Аудио #4
Идентификатор : 5
Формат : AC-3
Формат/Информация : Audio Coding 3
Расширение режима : CM (complete main)
Параметр Endianness формата : Big
Идентификатор кодека : A_AC3
Продолжительность : 2 ч. 1 м.
Вид битрейта : Постоянный
Битрейт : 640 Кбит/сек
Каналы : 6 каналов
Расположение каналов : Front: L C R, Side: L R, LFE
Частота : 48,0 КГц
Битовая глубина : 16 бит
Метод сжатия : С потерями
Размер потока : 556 Мбайт (6%)
Заголовок : ENG
Default : Нет
Forced : Нет
Текст #1
Идентификатор : 6
Формат : ASS
Идентификатор кодека : S_TEXT/ASS
Идентификатор кодека/Информация : Advanced Sub Station Alpha
Метод сжатия : Без потерь
Язык : Russian
Default : Нет
Forced : Нет
Текст #2
Идентификатор : 7
Формат : ASS
Идентификатор кодека : S_TEXT/ASS
Идентификатор кодека/Информация : Advanced Sub Station Alpha
Метод сжатия : Без потерь
Язык : English
Default : Нет
Forced : Нет
Меню
00:00:00.000 : en:00:00:00.000
00:04:23.930 : en:00:04:23.930
00:14:59.440 : en:00:14:59.440
00:22:55.791 : en:00:22:55.791
00:30:11.768 : en:00:30:11.768
00:39:54.517 : en:00:39:54.517
00:54:30.726 : en:00:54:30.726
01:01:39.905 : en:01:01:39.905
01:07:02.852 : en:01:07:02.852
01:19:24.093 : en:01:19:24.093
01:28:36.770 : en:01:28:36.770
01:37:59.957 : en:01:37:59.957
01:43:04.595 : en:01:43:04.595
01:52:55.560 : en:01:52:55.560

Релиз подготовлен 60 - fps

[60-fps.org].t1905.torrent
Торрент: Зарегистрирован [ 2016-03-18 00:14 ] · 1FCE15C99D8AD5932A6027CAF85EF2DED1090382

Скачать .torrent

Скачать

25 KB

Статус: проверено
Скачан: 51 раз
Поблагодарили:
Размер: 9,85 GB
 
Похожие Темы

[Цитировать]
Mazer_Kazan

Очень добрый фильм. Всегда плакал, смотря этот фильм. Теперь буду реветь, с мыслями о том, что нет Пола Уокера. Плачу

[Цитировать]
djon3volta

Фильм интересный..на раздачу бы кто встал? Грущу

[Цитировать]
Kryl

6219Фильм интересный..на раздачу бы кто встал? Грущу
по ходу не кому ..

[Цитировать]
djon3volta

6220
6219Фильм интересный..на раздачу бы кто встал? Грущу
по ходу не кому ..
Плохо..сайт не помешало бы разрекламировать хотя бы через соц.сети. если вы не против я упомяну о этом сайте в твиттере и фейсбуке.

[Цитировать]
Kryl

djon3volta,
Да , не против ))) , только толку то . Народ скачивает и сваливает ..

[Цитировать]
djon3volta

ТРОН Наследие - вот бы глянуть в 1080p 60fps... Умник
 
Показать сообщения:    

Текущее время: 22-Фев 16:24

Часовой пояс: UTC + 3


Вы не можете начинать темы
Вы не можете отвечать на сообщения
Вы не можете редактировать свои сообщения
Вы не можете удалять свои сообщения
Вы не можете голосовать в опросах
Вы не можете прикреплять файлы к сообщениям
Вы можете скачивать файлы