Властелин колец: Трилогия / The Lord of the Rings: Trilogy (2001-2003) BDRip-AVC | Extended Cut | 60 fps Принц Персии: Пески времени / Prince of Persia: The Sands of Time (2010) BDRip 1080p | 60 fps К звёздам / Ad Astra (2019) BDRip 1080p | 60 fps 21 мост / 21 Bridges (2019) BDRip 1080p | 60 fps Достать ножи / Knives Out (2019) BDRip 1080p | 60 fps Удивительное путешествие доктора Дулиттла / Dolittle (2020) BDRip 1080p | 60 fps День, когда Земля остановилась / The Day the Earth Stood Still (2008) BDRip 1080p | 60 fps Паразиты / Gisaengchung (2019) BDRip 1080p | 60 fps
  1. Longevity:
    5 years 11 months
    Posts:
    311
    Gender:
    Male
    Белоснежка и охотник / Snow White and the Huntsman (2012) BDRip 720p | 48fps | Extended Cut«Лишь одна будет править»- Информация о фильме
    Название: Белоснежка и охотник
    Оригинальное название: Snow White and the Huntsman
    Год выхода: 2012
    Жанр: Фэнтези, боевик, драма, приключения
    Режиссер: Руперт Сандерс
    Продюсер: Сэм Мерсер, Палак Патель, Джо Рот
    В ролях: Кристен Стюарт, Крис Хемсворт, Шарлиз Терон, Сэм Клафлин, Сэм Спруэлл, Иэн МакШейн, Боб Хоскинс, Рэй Уинстон, Ник Фрост, Эдди Марсан
    Описание фильма:
    Тьма приближается. Она прячется в лесах, спускается с гор, застилает небо. Никто не укроется от магического зеркала Королевы, живущей в неприступном замке, охраняемом бесчисленной армией. Но над Белоснежкой злые чары не властны. И тогда Королева отправляет Охотника, чтобы он принес ей сердце соперницы. Но очарованный Белоснежкой, он встает на ее сторону. Грядет великая битва. Лишь одна будет править.
    Страна: США
    Студия: Roth Films, Universal Pictures
    Продолжительность: 02:11:33
    Перевод: Дублированный (Лицензия)
    Субтитры: Вшитые, отключаемые
    Язык субтитров: Русский (Full), Английский (Full)

    Дата мировой премьеры: 30 мая 2012
    Дата российской премьеры: 14 июня 2012, «UPI»
    Дата выхода DVD/Blu-Ray релиза: 27 сентября 2012, «Двадцатый Век Фокс СНГ»
    Файл
    Формат: MKV
    Кодек: MPEG-4 AVC/H.264
    Качество: BDRip 720p
    Видео: ~ 7026 Кбит/сек, 1280 x 552, 47.952 кадров/сек
    Аудио: AC3 5.1, 48.0 KHz, 448 Кбит/сек - Русский

    MediaInfo

    Общее
    Уникальный идентификатор : 202919277302428107438578422194728309401 (0x98A8D4CC79302AC7BBCFD82074F39299)
    Полное имя : D:\Торренты\Snow White and the Huntsman 48fps.mkv
    Формат : Matroska
    Версия формата : Version 2
    Размер файла : 7,01 Гбайт
    Продолжительность : 2 ч. 11 м.
    Общий поток : 7626 Кбит/сек
    Название фильма : Snow White and the Huntsman (2012) BDRemux 1080p Extended Cut
    Дата кодирования : UTC 2015-09-25 17:38:01
    Программа кодирования : mkvmerge v6.9.1 ('Blue Panther') 64bit built on Apr 18 2014 18:23:38
    Библиотека кодирования : libebml v1.3.0 + libmatroska v1.4.1
    Видео
    Идентификатор : 1
    Формат : AVC
    Формат/Информация : Advanced Video Codec
    Профиль формата : High@L4.1
    Параметр CABAC формата : Да
    Параметр ReFrames формата : 6 кадров
    Идентификатор кодека : V_MPEG4/ISO/AVC
    Продолжительность : 2 ч. 11 м.
    Битрейт : 7026 Кбит/сек
    Ширина : 1280 пикселей
    Высота : 552 пикселя
    Соотношение сторон : 2,35:1
    Режим частоты кадров : Постоянный
    Частота кадров : 47,952 кадров/сек
    Цветовое пространство : YUV
    Субдискретизация насыщенности : 4:2:0
    Битовая глубина : 8 бит
    Тип развёртки : Прогрессивная
    Бит/(Пиксели*Кадры) : 0.207
    Размер потока : 6,46 Гбайт (92%)
    Заголовок : Release by mimok
    Библиотека кодирования : x264 core 130 r2273 b3065e6
    Настройки программы : cabac=1 / ref=6 / deblock=1:0:0 / analyse=0x3:0x133 / me=umh / subme=8 / psy=1 / psy_rd=1.00:0.15 / mixed_ref=1 / me_range=20 / chroma_me=1 / trellis=2 / 8x8dct=1 / cqm=0 / deadzone=21,11 / fast_pskip=0 / chroma_qp_offset=-3 / threads=6 / lookahead_threads=2 / sliced_threads=0 / nr=0 / decimate=0 / interlaced=0 / bluray_compat=0 / constrained_intra=0 / bframes=8 / b_pyramid=2 / b_adapt=2 / b_bias=0 / direct=1 / weightb=1 / open_gop=0 / weightp=2 / keyint=250 / keyint_min=25 / scenecut=40 / intra_refresh=0 / rc=crf / mbtree=0 / crf=18.0 / qcomp=0.63 / qpmin=10 / qpmax=51 / qpstep=4 / ip_ratio=1.40 / pb_ratio=1.30 / aq=1:1.20
    Default : Да
    Forced : Нет
    Аудио
    Идентификатор : 2
    Формат : AC-3
    Формат/Информация : Audio Coding 3
    Расширение режима : CM (complete main)
    Параметр Endianness формата : Big
    Идентификатор кодека : A_AC3
    Продолжительность : 2 ч. 11 м.
    Вид битрейта : Постоянный
    Битрейт : 448 Кбит/сек
    Каналы : 6 каналов
    Расположение каналов : Front: L C R, Side: L R, LFE
    Частота : 48,0 КГц
    Битовая глубина : 16 бит
    Метод сжатия : С потерями
    Размер потока : 422 Мбайт (6%)
    Заголовок : Dub
    Язык : Russian
    Default : Да
    Forced : Нет
    Текст #1
    Идентификатор : 3
    Формат : UTF-8
    Идентификатор кодека : S_TEXT/UTF8
    Идентификатор кодека/Информация : UTF-8 Plain Text
    Заголовок : full
    Язык : Russian
    Default : Да
    Forced : Нет
    Текст #2
    Идентификатор : 4
    Формат : UTF-8
    Идентификатор кодека : S_TEXT/UTF8
    Идентификатор кодека/Информация : UTF-8 Plain Text
    Заголовок : full
    Язык : English
    Default : Нет
    Forced : Нет

    Скринлист

    Скриншоты:

    Release was prepared by 60 - fps

  2. Longevity:
    5 years 4 months
    Posts:
    81
    Gender:
    Male
    Для меня - этот фильм держится в первую очередь на Шарлиз Терон. Хорошо, что во второй части создатели поняли, что было лучшим в первой, да ещё и персонажа Джессики Честейн ввели в повествование.
    Спасибо за релиз.
    25-Mar-2016 10:27 (after 5 months 13 days)


You cannot post new topics in this forum
You cannot reply to topics in this forum
You cannot edit your posts in this forum
You cannot delete your posts in this forum
You cannot vote in polls in this forum
You cannot attach files in this forum
You cannot download files in this forum