[Цитировать]
Kryl

«The story before Snow White»- Информация
Название: Белоснежка и Охотник 2
Оригинальное название: The Huntsman: Winter's War
Год выхода: 2016
Жанр: Фэнтези, Боевик, Драма, Приключения
Режиссер: Седрик Николя-Троян
Сценарий: Эван Спилиотопулос, Крэйг Мазин, Ивэн Догерти
Продюсер: Джо Рот, Сара Брэдшоу, Палак Патель
В ролях: Крис Хемсворт, Шарлиз Терон, Джессика Честейн, Эмили Блант, Ник Фрост, Роб Брайдон, Шеридан Смит, Александра Роуч, Сопе Дирису, Сэм Хэзелдайн, Сэм Клафлин, Софи Куксон, Конрад Кхан, Ниам Уолтер, Нана Аджйеман-Бедьяко, Амелия Крауч, Фред Татаскьор, Ралф Айнесон, Линн Уилмот, Колин Морган, Майя Васович
--Сюжет:
Когда любовь уходит, сердце прекрасной девы обращается в лед. И даже сотни королевств не смогут сдержать поступь ее несметного воинства. Лишь Охотник не ведает страха. Сквозь проклятый лес он идет навстречу своей судьбе.- Страна: США
Продолжительность: 01:53:57

Файл
Кодек: MPEG4/ISO/AVC H.264
Формат: MKV
Качество: BDRip 720p | 60 fps
Видео: 1280 x 532 (2.406) | 59.940 fps | 4.0 Мбит/сек
Аудио 1: AC3 | 5.1 | 48 kHz | 384 kbps | 16 bit | Дубляж iTunes |
Аудио 2: AC3 | 2.0 | 48 kHz | 192 kbps | 16 bit | ENG |

MedifInfo

Видео
Идентификатор : 1
Формат : AVC
Формат/Информация : Advanced Video Codec
Профиль формата : High@L4.1
Параметр CABAC формата : Да
Параметр ReFrames формата : 3 кадра
Идентификатор кодека : V_MPEG4/ISO/AVC
Продолжительность : 1 ч. 53 м.
Вид битрейта : Переменный
Битрейт : 3894 Кбит/сек
Максимальный битрейт : 4000 Кбит/сек
Ширина : 1280 пикселей
Высота : 532 пикселя
Соотношение сторон : 2,40:1
Режим частоты кадров : Постоянный
Частота кадров : 59,880 кадров/сек
Частота кадров в оригинале : 59,940 кадров/сек
Стандарт вещания : PAL
Цветовое пространство : YUV
Субдискретизация насыщенности : 4:2:0
Битовая глубина : 8 бит
Тип развёртки : Прогрессивная
Бит/(Пиксели*Кадры) : 0.096
Размер потока : 3,10 Гбайт (85%)
Заголовок : www.60-fps.org
Язык : English
Default : Да
Forced : Нет
Основные цвета : BT.601 NTSC
Характеристики трансфера : BT.601
Коэффициенты матрицы : BT.601
colour_range : Limited
Аудио #1
Идентификатор : 2
Формат : AC-3
Формат/Информация : Audio Coding 3
Расширение режима : CM (complete main)
Параметр Endianness формата : Big
Идентификатор кодека : A_AC3
Продолжительность : 1 ч. 53 м.
Вид битрейта : Постоянный
Битрейт : 384 Кбит/сек
Каналы : 6 каналов
Расположение каналов : Front: L C R, Side: L R, LFE
Частота : 48,0 КГц
Битовая глубина : 16 бит
Метод сжатия : С потерями
Размер потока : 313 Мбайт (8%)
Заголовок : Дубляж iTunes
Язык : Russian
Default : Да
Forced : Да
Аудио #2
Идентификатор : 3
Формат : AC-3
Формат/Информация : Audio Coding 3
Расширение режима : CM (complete main)
Параметр Endianness формата : Big
Идентификатор кодека : A_AC3
Продолжительность : 1 ч. 53 м.
Вид битрейта : Постоянный
Битрейт : 192 Кбит/сек
Каналы : 2 канала
Расположение каналов : Front: L R
Частота : 48,0 КГц
Битовая глубина : 16 бит
Метод сжатия : С потерями
Размер потока : 157 Мбайт (4%)
Заголовок : Original
Язык : English
Default : Нет
Forced : Нет
Меню
00:00:00.000 : en:глава 1
00:06:28.000 : en:глава 2
00:09:28.000 : en:глава 3
00:15:05.000 : en:глава 4
00:21:35.000 : en:глава 5
00:26:54.000 : en:глава 6
00:32:36.000 : en:глава 7
00:36:53.000 : en:глава 8
00:42:16.000 : en:глава 9
00:47:29.000 : en:глава 10
00:54:39.000 : en:глава 11
00:59:28.000 : en:глава 12
01:06:20.000 : en:глава 13
01:10:22.000 : en:глава 14
01:17:47.000 : en:глава 15
01:23:19.000 : en:глава 16
01:28:08.000 : en:глава 17
01:33:42.000 : en:глава 18
01:42:22.000 : en:глава 19
01:44:28.000 : en:глава 20

Релиз подготовлен 60 - fps



Последний раз редактировалось: Kryl (2016-07-14 09:03), всего редактировалось 3 раз(а)

[Цитировать]
toolmakerr

Спасибо за качество и за фильм. Потрясающий актёрский состав: Крис Хемсворт, Шарлиз Терон, Джессика Честейн, Эмили Блант. Только ради этого стоит посмотреть этот фильм. Да ещё в 60fps! Респект Автору.

Топик был перенесен из форума Новинки КиноПроката 60 FPS в форум Зарубежные фильмы 60 FPS
Kryl

[Цитировать]
ENIGMA

Спасибо Большое Овации
 
Показать сообщения:    

Текущее время: 29-Май 01:22

Часовой пояс: UTC + 3


Вы не можете начинать темы
Вы не можете отвечать на сообщения
Вы не можете редактировать свои сообщения
Вы не можете удалять свои сообщения
Вы не можете голосовать в опросах
Вы не можете прикреплять файлы к сообщениям
Вы не можете скачивать файлы